<?xml version="1.0" standalone="no"?>
<!DOCTYPE svg PUBLIC "-//W3C//DTD SVG 1.1//EN" "http://www.w3.org/Graphics/SVG/1.1/DTD/svg11.dtd" >
<svg xmlns="http://www.w3.org/2000/svg">
<metadata>Generated by IcoMoon</metadata>
<defs>
<font id="icomoon" horiz-adv-x="1024">
<font-face units-per-em="1024" ascent="960" descent="-64" />
<missing-glyph horiz-adv-x="1024" />
<glyph unicode="&#x20;" horiz-adv-x="512" d="" />
<glyph unicode="&#xe900;" glyph-name="add" d="M512 874.667c-235.263 0-426.667-191.404-426.667-426.667s191.404-426.667 426.667-426.667c235.263 0 426.667 191.404 426.667 426.667s-191.404 426.667-426.667 426.667zM512 810.667c200.674 0 362.667-161.992 362.667-362.667s-161.992-362.667-362.667-362.667c-200.674 0-362.667 161.992-362.667 362.667s161.992 362.667 362.667 362.667zM511.5 661.792c-17.459-0.281-31.503-14.5-31.503-31.999 0-0.161 0.001-0.323 0.004-0.483v0.024-149.333h-149.333c-0.135 0.002-0.293 0.003-0.453 0.003-17.675 0-32.003-14.328-32.003-32.003s14.328-32.003 32.003-32.003c0.159 0 0.318 0.001 0.477 0.003h149.309v-149.333c-0.002-0.135-0.003-0.293-0.003-0.453 0-17.675 14.328-32.003 32.003-32.003s32.003 14.328 32.003 32.003c0 0.159-0.001 0.318-0.003 0.477v-0.024 149.333h149.333c0.135-0.002 0.293-0.003 0.453-0.003 17.675 0 32.003 14.328 32.003 32.003s-14.328 32.003-32.003 32.003c-0.159 0-0.318-0.001-0.477-0.003h-149.309v149.333c0.002 0.137 0.003 0.298 0.003 0.459 0 17.675-14.328 32.003-32.003 32.003-0.176 0-0.351-0.001-0.527-0.004h0.026z" />
<glyph unicode="&#xe901;" d="M768-21.333l-42.667 128h-512c-70.699 0-128 57.301-128 128v426.667c0 70.699 57.301 128 128 128h597.333c70.699 0 128-57.301 128-128v-426.667c0-14.976 42.667-128 42.667-128l-85.333-128h-128z" />
<glyph unicode="&#xe902;" d="M810.667 618.667c0-47.128-38.205-85.333-85.333-85.333s-85.333 38.205-85.333 85.333c0 47.128 38.205 85.333 85.333 85.333s85.333-38.205 85.333-85.333z" />
<glyph unicode="&#xe903;" d="M602.411 363.008c-1.792-0.043-3.243-0.341-5.077-0.341-104.235 0-170.667 213.333-256 213.333s-170.667-186.112-170.667-298.667c0-23.381 19.115-42.667 42.667-42.667h311.253c14.72 49.323 41.856 93.269 77.824 128.341z" />
<glyph unicode="&#xe904;" d="M810.667 362.667c-117.76 0-213.333-95.573-213.333-213.333s95.573-213.333 213.333-213.333 213.333 95.573 213.333 213.333-95.573 213.333-213.333 213.333zM917.333 106.667h-64v-64c0-23.467-19.2-42.667-42.667-42.667s-42.667 19.2-42.667 42.667v64h-64c-23.467 0-42.667 19.2-42.667 42.667s19.2 42.667 42.667 42.667h64v64c0 23.467 19.2 42.667 42.667 42.667s42.667-19.2 42.667-42.667v-64h64c23.467 0 42.667-19.2 42.667-42.667s-19.2-42.667-42.667-42.667z" />
<glyph unicode="&#xe905;" glyph-name="back" d="M724.5 896.417c-11.532-0.354-21.86-5.231-29.324-12.907l-405.343-405.343c-7.718-7.721-12.492-18.387-12.492-30.167s4.774-22.445 12.492-30.167l405.333-405.333c7.778-8.092 18.692-13.118 30.781-13.118 23.567 0 42.671 19.104 42.671 42.671 0 12.089-5.027 23.003-13.104 30.767l-0.014 0.013-375.167 375.167 375.167 375.167c7.979 7.762 12.929 18.602 12.929 30.598 0 23.567-19.104 42.671-42.671 42.671-0.442 0-0.883-0.007-1.322-0.020l0.064 0.002z" />
<glyph unicode="&#xe906;" d="M337.784 350.73l270.499 270.508 76.965-76.962-270.499-270.508-76.965 76.962z" />
<glyph unicode="&#xe907;" d="M871.68 730.709l51.072 51.072c21.248 21.248 21.248 55.723 0 76.971v0c-21.248 21.248-55.723 21.248-76.971 0l-51.072-51.072 76.971-76.971z" />
<glyph unicode="&#xe908;" d="M152.32 165.291l-51.072-51.072c-21.248-21.248-21.248-55.723 0-76.971v0c21.248-21.248 55.723-21.248 76.971 0l51.072 51.072-76.971 76.971z" />
<glyph unicode="&#xe909;" d="M932.267 477.824l-59.989-59.989c-16.683-16.683-43.691-16.683-60.331 0l-330.112 330.112c-16.683 16.683-16.683 43.691 0 60.331l59.989 59.989c16.683 16.683 43.691 16.683 60.331 0l330.112-330.112c16.64-16.683 16.64-43.691 0-60.331z" />
<glyph unicode="&#xe90a;" d="M968.064 615.509l-26.24-26.24c-16.683-16.683-43.691-16.683-60.331 0l-228.224 228.224c-16.683 16.683-16.683 43.691 0 60.331l26.24 26.24c16.683 16.683 43.691 16.683 60.331 0l228.224-228.224c16.683-16.683 16.683-43.691 0-60.331z" />
<glyph unicode="&#xe90b;" d="M90.965 417.408l59.989 59.989c16.683 16.683 43.691 16.683 60.331 0l330.112-330.112c16.683-16.683 16.683-43.691 0-60.331l-59.989-59.989c-16.683-16.683-43.691-16.683-60.331 0l-330.112 330.112c-16.64 16.683-16.64 43.691 0 60.331z" />
<glyph unicode="&#xe90c;" d="M55.168 279.723l26.24 26.24c16.683 16.683 43.691 16.683 60.331 0l228.224-228.224c16.683-16.683 16.683-43.691 0-60.331l-26.24-26.24c-16.683-16.683-43.691-16.683-60.331 0l-228.224 228.224c-16.683 16.683-16.683 43.691 0 60.331z" />
<glyph unicode="&#xe90d;" d="M768 64h-512c-70.699 0-128 57.301-128 128v469.333h768v-469.333c0-70.699-57.301-128-128-128z" />
<glyph unicode="&#xe90e;" d="M768 832h-512c-70.699 0-128-57.301-128-128v-42.667h768v42.667c0 70.699-57.301 128-128 128z" />
<glyph unicode="&#xe90f;" d="M640 192c0-23.564-19.103-42.667-42.667-42.667s-42.667 19.103-42.667 42.667c0 23.564 19.103 42.667 42.667 42.667s42.667-19.103 42.667-42.667z" />
<glyph unicode="&#xe910;" d="M469.333 192c0-23.564-19.103-42.667-42.667-42.667s-42.667 19.103-42.667 42.667c0 23.564 19.103 42.667 42.667 42.667s42.667-19.103 42.667-42.667z" />
<glyph unicode="&#xe911;" d="M298.667 192c0-23.564-19.103-42.667-42.667-42.667s-42.667 19.103-42.667 42.667c0 23.564 19.103 42.667 42.667 42.667s42.667-19.103 42.667-42.667z" />
<glyph unicode="&#xe912;" d="M298.667 362.667c0-23.564-19.103-42.667-42.667-42.667s-42.667 19.103-42.667 42.667c0 23.564 19.103 42.667 42.667 42.667s42.667-19.103 42.667-42.667z" />
<glyph unicode="&#xe913;" d="M469.333 362.667c0-23.564-19.103-42.667-42.667-42.667s-42.667 19.103-42.667 42.667c0 23.564 19.103 42.667 42.667 42.667s42.667-19.103 42.667-42.667z" />
<glyph unicode="&#xe914;" d="M640 362.667c0-23.564-19.103-42.667-42.667-42.667s-42.667 19.103-42.667 42.667c0 23.564 19.103 42.667 42.667 42.667s42.667-19.103 42.667-42.667z" />
<glyph unicode="&#xe915;" d="M810.667 362.667c0-23.564-19.103-42.667-42.667-42.667s-42.667 19.103-42.667 42.667c0 23.564 19.103 42.667 42.667 42.667s42.667-19.103 42.667-42.667z" />
<glyph unicode="&#xe916;" d="M810.667 533.333c0-23.564-19.103-42.667-42.667-42.667s-42.667 19.103-42.667 42.667c0 23.564 19.103 42.667 42.667 42.667s42.667-19.103 42.667-42.667z" />
<glyph unicode="&#xe917;" d="M640 533.333c0-23.564-19.103-42.667-42.667-42.667s-42.667 19.103-42.667 42.667c0 23.564 19.103 42.667 42.667 42.667s42.667-19.103 42.667-42.667z" />
<glyph unicode="&#xe918;" d="M469.333 533.333c0-23.564-19.103-42.667-42.667-42.667s-42.667 19.103-42.667 42.667c0 23.564 19.103 42.667 42.667 42.667s42.667-19.103 42.667-42.667z" />
<glyph unicode="&#xe919;" d="M768 64h-512c-70.699 0-128 57.301-128 128v512c0 70.699 57.301 128 128 128h512c70.699 0 128-57.301 128-128v-512c0-70.699-57.301-128-128-128z" />
<glyph unicode="&#xe91a;" d="M789.547 384.64h-33.621v140.032c0 13.099-10.624 23.68-23.68 23.68-13.099 0-23.68-10.624-23.68-23.68v-156.032c0-15.061 12.203-27.307 27.307-27.307h53.717c11.947 0 21.632 9.685 21.632 21.632s-9.685 21.675-21.675 21.675z" />
<glyph unicode="&#xe91b;" d="M277.248 365.611v74.88h0.939l40.277-84.779c4.139-8.789 13.184-14.379 23.168-14.379 18.987 0 31.275 19.328 22.784 35.669l-41.6 80 36.736 63.147c8.917 15.445-2.645 34.517-20.949 34.517-9.131 0-17.451-4.992-21.461-12.885l-38.955-75.989h-0.939v64.64c0 13.397-11.221 24.277-25.131 24.277-13.867 0-25.131-10.88-25.131-24.277v-164.821c0-13.397 11.221-24.277 25.131-24.277 13.867 0 25.131 10.88 25.131 24.277z" />
<glyph unicode="&#xe91c;" d="M459.605 510.933c6.272 0 11.435-1.237 15.659-2.987 10.581-4.48 23.083-2.389 30.037 6.016 8.064 9.771 5.547 23.851-5.931 30.251-10.112 5.675-24.363 10.453-43.563 10.453-65.707 0-87.595-61.867-87.595-106.667 0-38.741 20.821-106.667 87.595-106.667 20.181 0 34.688 5.376 44.757 11.648 11.136 6.869 13.056 20.949 4.608 30.421l-0.043 0.043c-7.253 8.107-19.797 9.984-30.037 5.12-4.309-2.048-9.387-3.456-15.147-3.456-14.208 0-41.088 9.429-41.088 62.933-0.043 53.461 27.563 62.891 40.747 62.891z" />
<glyph unicode="&#xe91d;" d="M609.621 548.352c-19.029 0-35.541-11.776-40.064-28.544l-40.363-150.571c-3.797-14.208 8.064-27.904 24.235-27.904 11.648 0 21.76 7.339 24.32 17.621l4.992 20.096h51.285l4.992-20.096c2.56-10.325 12.672-17.621 24.32-17.621h2.304c16.128 0 28.032 13.696 24.235 27.904l-40.107 150.571c-4.565 16.725-21.12 28.544-40.149 28.544zM588.501 415.317l19.328 88.021h1.28l18.389-88.021h-38.997z" />
<glyph unicode="&#xe91e;" d="M224.768 502.101c-41.643 41.643-109.184 41.643-150.869 0s-41.643-109.184 0-150.869l198.187-198.187c61.824-61.824 162.005-61.824 223.829 0l38.955 38.955-310.101 310.101z" />
<glyph unicode="&#xe91f;" d="M950.101 758.101c-41.643 41.643-109.184 41.643-150.869 0l-415.232-415.232 150.869-150.869 415.232 415.232c41.643 41.685 41.643 109.227 0 150.869z" />
<glyph unicode="&#xe920;" glyph-name="checkmark" d="M916.5 768.417c-11.532-0.354-21.86-5.231-29.324-12.907l-524.51-524.51-225.833 225.833c-7.778 8.091-18.692 13.118-30.781 13.118-23.567 0-42.671-19.104-42.671-42.671 0-12.088 5.027-23.003 13.104-30.767l0.014-0.013 256-256c7.721-7.718 18.387-12.492 30.167-12.492s22.445 4.774 30.167 12.492l554.666 554.666c7.979 7.762 12.929 18.602 12.929 30.598 0 23.567-19.104 42.671-42.671 42.671-0.442 0-0.883-0.007-1.322-0.020l0.064 0.002z" />
<glyph unicode="&#xe921;" d="M853.333 746.667c0 70.699-57.301 128-128 128h-426.667c-70.699 0-128-57.301-128-128v-597.333c0-70.699 57.301-128 128-128h426.667c70.699 0 128 57.301 128 128v597.333z" />
<glyph unicode="&#xe922;" d="M618.667 789.333h-213.333c-35.371 0-64 28.672-64 64s28.629 64 64 64h213.333c35.371 0 64-28.672 64-64s-28.629-64-64-64z" />
<glyph unicode="&#xe923;" d="M512 576c-7.936 0-162.731 0-170.667 0-23.552 0-42.667-19.115-42.667-42.667s19.115-42.667 42.667-42.667c7.936 0 162.731 0 170.667 0 23.552 0 42.667 19.115 42.667 42.667s-19.115 42.667-42.667 42.667z" />
<glyph unicode="&#xe924;" d="M512 320c-7.936 0-162.731 0-170.667 0-23.552 0-42.667-19.115-42.667-42.667s19.115-42.667 42.667-42.667c7.936 0 162.731 0 170.667 0 23.552 0 42.667 19.115 42.667 42.667s-19.115 42.667-42.667 42.667z" />
<glyph unicode="&#xe925;" d="M725.333 533.333c0-23.564-19.103-42.667-42.667-42.667s-42.667 19.103-42.667 42.667c0 23.564 19.103 42.667 42.667 42.667s42.667-19.103 42.667-42.667z" />
<glyph unicode="&#xe926;" d="M725.333 277.333c0-23.564-19.103-42.667-42.667-42.667s-42.667 19.103-42.667 42.667c0 23.564 19.103 42.667 42.667 42.667s42.667-19.103 42.667-42.667z" />
<glyph unicode="&#xe927;" d="M725.333 853.333c0-35.346-28.654-64-64-64s-64 28.654-64 64c0 35.346 28.654 64 64 64s64-28.654 64-64z" />
<glyph unicode="&#xe928;" d="M768 704h-300.8c1.365 6.912 2.133 14.037 2.133 21.333 0 58.923-47.744 106.667-106.667 106.667s-106.667-47.744-106.667-106.667c0-7.296 0.768-14.421 2.133-21.333h-2.133c-70.699 0-128-57.301-128-128v-384c0-70.699 57.301-128 128-128h512c70.699 0 128 57.301 128 128v384c0 70.699-57.301 128-128 128z" />
<glyph unicode="&#xe929;" d="M810.667 384c0-35.346-28.654-64-64-64s-64 28.654-64 64c0 35.346 28.654 64 64 64s64-28.654 64-64z" />
<glyph unicode="&#xe92a;" d="M661.333 960c-58.923 0-106.667-47.744-106.667-106.667s47.744-106.667 106.667-106.667 106.667 47.744 106.667 106.667-47.744 106.667-106.667 106.667zM674.859 813.696v0c0-6.315-5.12-11.435-11.435-11.435s-11.435 5.12-11.435 11.435v64.555l-6.144-4.651c-4.907-3.712-12.032-2.261-15.061 3.115-2.603 4.523-1.365 10.283 2.859 13.355l16.811 12.288c2.645 1.92 5.803 2.987 9.088 2.987 8.491 0 15.36-6.869 15.36-15.36v-76.288z" />
<glyph unicode="&#xe92b;" d="M256 704h118.144c0 0.085 0.043 0.128 0.043 0.213 0 14.72-15.061 21.376-20.779 21.376-4.693 0-9.387-0.683-13.568-1.621-7.381-1.579-14.251 4.48-13.995 12.032l1.749 48.043c0.299 8.747 7.509 15.616 16.213 15.616h42.197c7.637 0 13.867-6.187 13.867-13.867 0-7.637-6.187-13.867-13.867-13.867h-31.019l-0.981-24.363c1.621 0.683 3.456 1.195 5.504 1.621s3.84 0.597 5.291 0.597c32.896 0 40.149-30.976 40.064-44.587 0-0.384-0.085-0.811-0.085-1.195h105.045c1.024 7.040 2.176 14.037 2.176 21.333 0 82.475-66.859 149.333-149.333 149.333s-149.333-66.859-149.333-149.333c0-9.685 1.109-19.115 2.859-28.288 12.587 4.139 25.813 6.955 39.808 6.955z" />
<glyph unicode="&#xe92c;" glyph-name="duotone-collapse-arrow" d="M563.499 691.499c-16.661 16.661-43.669 16.661-60.331 0l-405.333-405.333c-16.661-16.661-16.661-43.669 0-60.331s43.669-16.661 60.331 0l375.168 375.168 375.168-375.168c8.341-8.341 19.243-12.501 30.165-12.501s21.824 4.16 30.165 12.501c16.661 16.661 16.661 43.669 0 60.331l-405.333 405.333z" />
<glyph unicode="&#xe92d;" d="M405.333 874.667c-176.725 0-320-143.275-320-320 0-50.944 12.203-98.901 33.365-141.653l-32.171-128.597c-7.339-29.312 19.2-55.851 48.512-48.512l128.597 32.171c42.795-21.205 90.752-33.408 141.696-33.408 176.725 0 320 143.275 320 320s-143.275 320-320 320z" />
<glyph unicode="&#xe92e;" d="M889.6 262.4l47.829-191.317c7.339-29.312-19.2-55.851-48.512-48.512l-191.317 47.829 192 192z" />
<glyph unicode="&#xe92f;" d="M711.552 647.552c8.875-29.44 13.781-60.587 13.781-92.885 0-176.725-143.275-320-320-320-32.299 0-63.445 4.907-92.885 13.781 39.808-131.413 161.792-227.115 306.219-227.115 176.725 0 320 143.275 320 320 0 144.427-95.701 266.411-227.115 306.219z" />
<glyph unicode="&#xe930;" d="M554.667 576h-256c-23.595 0-42.667 19.115-42.667 42.667s19.072 42.667 42.667 42.667h256c23.595 0 42.667-19.115 42.667-42.667s-19.072-42.667-42.667-42.667z" />
<glyph unicode="&#xe931;" d="M469.333 405.333h-170.667c-23.595 0-42.667 19.115-42.667 42.667s19.072 42.667 42.667 42.667h170.667c23.595 0 42.667-19.115 42.667-42.667s-19.072-42.667-42.667-42.667z" />
<glyph unicode="&#xe932;" d="M661.333 405.333h-298.667c-82.475 0-149.333-66.859-149.333-149.333s66.859-149.333 149.333-149.333h298.667c82.475 0 149.333 66.859 149.333 149.333s-66.859 149.333-149.333 149.333z" />
<glyph unicode="&#xe933;" d="M874.667 320h-725.333c-58.923 0-106.667-47.744-106.667-106.667s47.744-106.667 106.667-106.667h725.333c58.923 0 106.667 47.744 106.667 106.667s-47.744 106.667-106.667 106.667z" />
<glyph unicode="&#xe934;" d="M682.667 661.333c0-94.257-76.41-170.667-170.667-170.667s-170.667 76.41-170.667 170.667c0 94.257 76.41 170.667 170.667 170.667s170.667-76.41 170.667-170.667z" />
<glyph unicode="&#xe935;" d="M981.333 576c0-70.692-57.308-128-128-128s-128 57.308-128 128c0 70.692 57.308 128 128 128s128-57.308 128-128z" />
<glyph unicode="&#xe936;" d="M298.667 576c0-70.692-57.308-128-128-128s-128 57.308-128 128c0 70.692 57.308 128 128 128s128-57.308 128-128z" />
<glyph unicode="&#xe937;" glyph-name="delete" d="M831.625 811.292c-11.727-0.285-22.24-5.259-29.778-13.111l-289.847-289.847-289.833 289.833c-7.761 7.971-18.596 12.917-30.586 12.917-0.014 0-0.028 0-0.041 0h0.002c-23.544-0.030-42.618-19.123-42.618-42.671 0-11.987 4.942-22.819 12.9-30.57l289.842-289.842-289.833-289.833c-8.091-7.778-13.118-18.692-13.118-30.781 0-23.567 19.104-42.671 42.671-42.671 12.089 0 23.003 5.027 30.767 13.104l0.013 0.014 289.833 289.833 289.833-289.833c7.778-8.092 18.692-13.118 30.781-13.118 23.567 0 42.671 19.104 42.671 42.671 0 12.089-5.027 23.003-13.104 30.767l-0.014 0.013-289.833 289.833 289.833 289.833c8.103 7.779 13.138 18.701 13.138 30.799 0 23.567-19.104 42.671-42.671 42.671-0.355 0-0.708-0.004-1.061-0.013l0.052 0.001z" />
<glyph unicode="&#xe938;" d="M896 661.333c0-94.257-76.41-170.667-170.667-170.667s-170.667 76.41-170.667 170.667c0 94.257 76.41 170.667 170.667 170.667s170.667-76.41 170.667-170.667z" />
<glyph unicode="&#xe939;" d="M384 64h-170.667c-47.147 0-85.333 38.187-85.333 85.333v170.667c0 47.147 38.187 85.333 85.333 85.333h170.667c47.147 0 85.333-38.187 85.333-85.333v-170.667c0-47.147-38.187-85.333-85.333-85.333z" />
<glyph unicode="&#xe93a;" d="M810.667 64h-170.667c-47.147 0-85.333 38.187-85.333 85.333v170.667c0 47.147 38.187 85.333 85.333 85.333h170.667c47.147 0 85.333-38.187 85.333-85.333v-170.667c0-47.147-38.187-85.333-85.333-85.333z" />
<glyph unicode="&#xe93b;" d="M384 490.667h-170.667c-47.147 0-85.333 38.187-85.333 85.333v170.667c0 47.147 38.187 85.333 85.333 85.333h170.667c47.147 0 85.333-38.187 85.333-85.333v-170.667c0-47.147-38.187-85.333-85.333-85.333z" />
<glyph unicode="&#xe93c;" d="M768 64h-512c-70.699 0-128 57.301-128 128v512c0 70.699 57.301 128 128 128h512c70.699 0 128-57.301 128-128v-512c0-70.699-57.301-128-128-128z" />
<glyph unicode="&#xe93d;" d="M597.333 387.371v426.667c0 47.147-38.187 85.333-85.333 85.333s-85.333-38.187-85.333-85.333v-426.667h170.667z" />
<glyph unicode="&#xe93e;" d="M335.744 448c-32.896 0-49.451-39.68-26.283-63.061l164.523-166.101c20.949-21.12 55.083-21.12 76.032 0l164.523 166.101c23.168 23.381 6.613 63.061-26.283 63.061h-352.512z" />
<glyph unicode="&#xe93f;" glyph-name="edit" d="M824.683 564.565l52.053 52.053c54.059 54.059 54.059 142.037 0 196.117-26.176 26.155-60.971 40.533-98.069 40.533s-71.915-14.4-98.069-40.555l-52.032-52.032 196.117-196.117zM583.317 715.435l-385.472-385.472c-8.213-8.213-14.464-18.347-18.091-29.333l-71.467-215.915c-3.819-11.477-0.811-24.128 7.744-32.683 6.123-6.101 14.272-9.365 22.635-9.365 3.371 0 6.763 0.533 10.069 1.621l215.851 71.488c11.029 3.627 21.184 9.877 29.397 18.112l385.451 385.451-196.117 196.096z" />
<glyph unicode="&#xe940;" d="M725.333 768.043c0-58.923 47.744-106.709 106.624-106.709 59.008 0 106.709 47.787 106.709 106.709 0 58.837-47.701 106.624-106.709 106.624-58.88 0-106.624-47.787-106.624-106.624z" />
<glyph unicode="&#xe941;" d="M543.531 234.667h-244.864c-23.552 0-42.667 19.072-42.667 42.667s19.115 42.667 42.667 42.667h235.648l-61.952 154.837c-8.747 21.888 1.877 46.72 23.765 55.467 21.973 8.747 46.72-1.92 55.467-23.808l65.365-163.371c9.771-24.405 6.784-52.011-7.979-73.771-14.677-21.717-39.168-34.688-65.451-34.688zM537.728 311.467v0zM896 447.275h-128c-15.957 0-30.549 8.875-37.888 23.040l-87.168 168.405-15.232 20.693-123.819 83.883-152.192-38.016c-22.827-5.717-45.995 8.149-51.755 31.061-5.717 22.827 8.192 45.995 31.019 51.712l170.667 42.667c11.733 3.072 24.192 0.811 34.261-6.059l145.707-98.645c4.053-2.731 7.552-6.144 10.453-10.027l21.589-29.355c1.323-1.792 2.517-3.712 3.541-5.675l76.8-148.352h102.016c23.552 0 42.667-19.072 42.667-42.667s-19.115-42.667-42.667-42.667z" />
<glyph unicode="&#xe942;" d="M652.459 728.405l66.859-94.251 46.592-98.645-33.323-69.589-59.008 80.384-83.157-89.003 31.019-129.28-58.837-71.723-263.936 63.701 188.971 23.851-80.427 101.291 8.747 142.976 108.117 107.477-49.152 51.072-15.531 42.667z" />
<glyph unicode="&#xe943;" d="M597.333 512c0-58.91-47.756-106.667-106.667-106.667s-106.667 47.756-106.667 106.667c0 58.91 47.756 106.667 106.667 106.667s106.667-47.756 106.667-106.667z" />
<glyph unicode="&#xe944;" d="M725.333 640c0-58.91-47.756-106.667-106.667-106.667s-106.667 47.756-106.667 106.667c0 58.91 47.756 106.667 106.667 106.667s106.667-47.756 106.667-106.667z" />
<glyph unicode="&#xe945;" d="M426.624 21.333c-7.467 0-15.061 1.963-21.931 6.101-20.224 12.117-26.752 38.315-14.635 58.539l128 213.333c12.117 20.224 38.315 26.795 58.539 14.635 20.224-12.117 26.752-38.315 14.635-58.539l-128-213.333c-7.979-13.355-22.101-20.736-36.608-20.736z" />
<glyph unicode="&#xe946;" d="M389.376 84.309l84.011 204.885 76.544-43.093-135.723-176.939z" />
<glyph unicode="&#xe947;" d="M256 576h-213.333c-23.552 0-42.667 19.072-42.667 42.667s19.115 42.667 42.667 42.667h213.333c23.552 0 42.667-19.072 42.667-42.667s-19.115-42.667-42.667-42.667z" />
<glyph unicode="&#xe948;" d="M256 405.333h-170.667c-23.552 0-42.667 19.072-42.667 42.667s19.115 42.667 42.667 42.667h170.667c23.552 0 42.667-19.072 42.667-42.667s-19.115-42.667-42.667-42.667z" />
<glyph unicode="&#xe949;" d="M533.333 64c-26.069 0-50.603 16.043-60.075 41.984l-174.592 476.117-174.592-476.16c-12.203-33.195-49.024-50.219-82.133-38.059-33.152 12.16-50.219 48.939-38.059 82.133l234.667 640c9.259 25.216 33.28 41.984 60.117 41.984s50.859-16.768 60.075-41.941l234.667-640c12.16-33.195-4.864-69.973-38.059-82.133-7.253-2.688-14.72-3.925-22.016-3.925z" />
<glyph unicode="&#xe94a;" glyph-name="icons8-expand-arrow" d="M887.168 691.499l-375.168-375.168-375.168 375.168c-16.661 16.661-43.669 16.661-60.331 0s-16.661-43.669 0-60.331l405.333-405.333c8.341-8.341 19.243-12.501 30.165-12.501s21.824 4.16 30.165 12.501l405.333 405.333c16.661 16.661 16.661 43.669 0 60.331s-43.669 16.661-60.331 0z" />
<glyph unicode="&#xe94b;" glyph-name="expand-arrows" d="M383.167 747.083c-11.532-0.354-21.86-5.231-29.324-12.907l-256.010-256.010c-7.718-7.721-12.492-18.387-12.492-30.167s4.774-22.445 12.492-30.167l256-256c7.778-8.092 18.692-13.118 30.781-13.118 23.567 0 42.671 19.104 42.671 42.671 0 12.089-5.027 23.003-13.104 30.767l-0.014 0.013-225.833 225.833 225.833 225.833c7.979 7.762 12.929 18.602 12.929 30.598 0 23.567-19.104 42.671-42.671 42.671-0.442 0-0.883-0.007-1.322-0.020l0.064 0.002zM639.542 747.083c-23.544-0.030-42.618-19.123-42.618-42.671 0-11.987 4.942-22.819 12.9-30.57l225.842-225.842-225.833-225.833c-8.092-7.778-13.118-18.692-13.118-30.781 0-23.567 19.104-42.671 42.671-42.671 12.089 0 23.003 5.027 30.767 13.104l0.013 0.014 256 256c7.718 7.721 12.492 18.387 12.492 30.167s-4.774 22.445-12.492 30.167l-256 256c-7.761 7.972-18.596 12.917-30.586 12.917-0.014 0-0.027 0-0.041 0h0.002z" />
<glyph unicode="&#xe94c;" glyph-name="external-link" d="M873.833 853.75c-1.72-0.058-3.346-0.207-4.942-0.445l0.234 0.029h-271.792c-0.179 0.003-0.391 0.004-0.603 0.004-23.567 0-42.671-19.104-42.671-42.671s19.104-42.671 42.671-42.671c0.212 0 0.424 0.002 0.635 0.005h174.301l-289.833-289.833c-8.092-7.778-13.118-18.692-13.118-30.781 0-23.567 19.104-42.671 42.671-42.671 12.089 0 23.003 5.027 30.767 13.104l0.013 0.014 289.833 289.833v-174.333c-0.003-0.179-0.004-0.391-0.004-0.603 0-23.567 19.104-42.671 42.671-42.671s42.671 19.104 42.671 42.671c0 0.212-0.002 0.424-0.005 0.635v-0.032 272.083c0.242 1.706 0.38 3.677 0.38 5.68 0 23.567-19.104 42.671-42.671 42.671-0.425 0-0.849-0.006-1.271-0.019l0.062 0.001zM266.667 789.333c-87.836 0-160-72.164-160-160v-426.667c0-87.836 72.164-160 160-160h426.667c87.836 0 160 72.164 160 160v202.667c0.003 0.179 0.004 0.391 0.004 0.603 0 23.567-19.104 42.671-42.671 42.671s-42.671-19.104-42.671-42.671c0-0.212 0.002-0.424 0.005-0.635v0.032-202.667c0-41.529-33.137-74.667-74.667-74.667h-426.667c-41.529 0-74.667 33.137-74.667 74.667v426.667c0 41.529 33.137 74.667 74.667 74.667h202.667c0.179-0.003 0.391-0.004 0.603-0.004 23.567 0 42.671 19.104 42.671 42.671s-19.104 42.671-42.671 42.671c-0.212 0-0.424-0.002-0.635-0.005h-202.635z" />
<glyph unicode="&#xe94d;" glyph-name="first" d="M256 832c-23.552 0-42.667-19.115-42.667-42.667v-682.667c0-23.552 19.115-42.667 42.667-42.667s42.667 19.115 42.667 42.667v682.667c0 23.552-19.115 42.667-42.667 42.667zM798.165 819.499c-16.661 16.661-43.669 16.661-60.331 0l-341.333-341.333c-16.661-16.661-16.661-43.669 0-60.331l341.333-341.333c8.341-8.341 19.243-12.501 30.165-12.501s21.824 4.16 30.165 12.501c16.661 16.661 16.661 43.669 0 60.331l-311.168 311.168 311.168 311.168c16.661 16.661 16.661 43.669 0 60.331z" />
<glyph unicode="&#xe94e;" d="M303.403 789.504c-148.651 0-260.736-50.901-260.736-118.443 0-78.507 72.917-73.515 192-73.515 45.184 0 107.179-26.88 151.851-40.832 38.741-12.117 74.069-23.168 102.827-23.168 15.787 0 29.525 3.328 40.832 11.563 17.963 13.184 25.899 36.096 24.277 70.059-4.011 84.267-72.107 174.336-251.051 174.336z" />
<glyph unicode="&#xe94f;" d="M618.496 597.717v0c-17.493 0-31.829 14.336-31.829 31.829v0c0 17.451 14.336 31.787 31.829 31.787v0c17.493 0 31.829-14.336 31.829-31.829v0c-0.043-17.493-14.336-31.787-31.829-31.787z" />
<glyph unicode="&#xe950;" d="M618.837 501.333v0c-17.493 0-31.829 14.336-31.829 31.829v0c0 17.493 14.336 31.829 31.829 31.829v0c17.493 0 31.829-14.336 31.829-31.829v0c0-17.493-14.336-31.829-31.829-31.829z" />
<glyph unicode="&#xe951;" d="M597.163 693.717v0c-17.493 0-31.829 14.336-31.829 31.829v0c0 17.493 14.336 31.829 31.829 31.829v0c17.493 0 31.829-14.336 31.829-31.829v0c-0.043-17.536-14.336-31.829-31.829-31.829z" />
<glyph unicode="&#xe952;" d="M522.837 768.384v0c-17.493 0-31.829 14.336-31.829 31.829v0c0 17.493 14.336 31.829 31.829 31.829v0c17.493-0.043 31.829-14.379 31.829-31.872v0c0-17.493-14.336-31.787-31.829-31.787z" />
<glyph unicode="&#xe953;" d="M895.787 323.499c1.621 33.963-6.315 56.875-24.277 70.059-11.307 8.235-25.045 11.563-40.832 11.563-28.715 0-64.043-11.051-102.827-23.168-44.715-13.952-106.667-40.832-151.851-40.832-119.083 0-192 4.992-192-73.515 0-67.541 112.085-118.443 260.736-118.443 178.944 0 247.040 90.069 251.051 174.336z" />
<glyph unicode="&#xe954;" d="M991.616 309.163v0c0-17.493-14.336-31.829-31.829-31.829v0c-17.493 0-31.829 14.336-31.829 31.829v0c0 17.493 14.336 31.829 31.829 31.829v0c17.536-0.043 31.829-14.336 31.829-31.829z" />
<glyph unicode="&#xe955;" d="M992 405.504v0c0-17.493-14.336-31.829-31.829-31.829v0c-17.493 0-31.829 14.336-31.829 31.829v0c0 17.493 14.336 31.829 31.829 31.829v0c17.493 0 31.829-14.336 31.829-31.829z" />
<glyph unicode="&#xe956;" d="M970.283 213.163v0c0-17.493-14.336-31.829-31.829-31.829v0c-17.493 0-31.829 14.336-31.829 31.829v0c0 17.493 14.336 31.829 31.829 31.829v0c17.536-0.043 31.829-14.336 31.829-31.829z" />
<glyph unicode="&#xe957;" d="M896 138.496v0c0-17.493-14.336-31.829-31.829-31.829v0c-17.493 0-31.829 14.336-31.829 31.829v0c0 17.493 14.336 31.829 31.829 31.829v0c17.493-0.043 31.829-14.336 31.829-31.829z" />
<glyph unicode="&#xe958;" glyph-name="forward" d="M375.168 12.501c8.341-8.341 19.243-12.501 30.165-12.501s21.824 4.16 30.165 12.501l405.333 405.333c16.661 16.661 16.661 43.669 0 60.331l-405.333 405.333c-16.661 16.661-43.669 16.661-60.331 0s-16.661-43.669 0-60.331l375.168-375.168-375.168-375.168c-16.661-16.661-16.661-43.669 0-60.331z" />
<glyph unicode="&#xe959;" glyph-name="fullscreen" d="M852.5 832.417c-1.72-0.058-3.346-0.207-4.942-0.445l0.234 0.029h-186.458c-0.179 0.003-0.391 0.004-0.603 0.004-23.567 0-42.671-19.104-42.671-42.671s19.104-42.671 42.671-42.671c0.212 0 0.424 0.002 0.635 0.005h88.968l-537-537v89c0.003 0.179 0.004 0.391 0.004 0.603 0 23.567-19.104 42.671-42.671 42.671s-42.671-19.104-42.671-42.671c0-0.212 0.002-0.424 0.005-0.635v0.032-186.75c-0.24-1.699-0.377-3.663-0.377-5.658 0-23.567 19.104-42.671 42.671-42.671 2.086 0 4.137 0.15 6.143 0.439l-0.229-0.027h186.458c0.179-0.003 0.391-0.004 0.603-0.004 23.567 0 42.671 19.104 42.671 42.671s-19.104 42.671-42.671 42.671c-0.212 0-0.424-0.002-0.635-0.005h-88.968l537 537v-89c-0.003-0.179-0.004-0.391-0.004-0.603 0-23.567 19.104-42.671 42.671-42.671s42.671 19.104 42.671 42.671c0 0.212-0.002 0.424-0.005 0.635v-0.032 186.75c0.242 1.706 0.38 3.677 0.38 5.68 0 23.567-19.104 42.671-42.671 42.671-0.425 0-0.849-0.006-1.271-0.019l0.062 0.001zM170.667 832c-2.89-0.001-5.712-0.289-8.44-0.837l0.273 0.046c-2.813-0.57-5.268-1.318-7.62-2.269l0.286 0.102c-0.253-0.098-0.499-0.188-0.75-0.292-2.665-1.109-4.939-2.323-7.079-3.725l0.163 0.1c-0.152-0.099-0.307-0.191-0.458-0.292-2.355-1.583-4.412-3.269-6.296-5.129l0.005 0.004c-0.079-0.078-0.172-0.13-0.25-0.208-0.036-0.036-0.047-0.089-0.083-0.125-1.924-1.928-3.666-4.040-5.195-6.307l-0.096-0.152c-0.038-0.057-0.088-0.11-0.125-0.167-1.283-1.953-2.483-4.199-3.478-6.553l-0.105-0.28c-0.124-0.294-0.258-0.579-0.375-0.875-0.82-1.986-1.552-4.356-2.075-6.804l-0.050-0.28c-0.052-0.251-0.12-0.498-0.167-0.75-0.471-2.365-0.744-5.086-0.75-7.87v-192.005c-0.003-0.179-0.004-0.391-0.004-0.603 0-23.567 19.104-42.671 42.671-42.671s42.671 19.104 42.671 42.671c0 0.212-0.002 0.424-0.005 0.635v-0.032 89l208.167-208.167 60.333 60.333-208.167 208.167h89c0.179-0.003 0.391-0.004 0.603-0.004 23.567 0 42.671 19.104 42.671 42.671s-19.104 42.671-42.671 42.671c-0.212 0-0.424-0.002-0.635-0.005h-191.968zM602.5 417.833l-60.333-60.333 208.167-208.167h-89c-0.179 0.003-0.391 0.004-0.603 0.004-23.567 0-42.671-19.104-42.671-42.671s19.104-42.671 42.671-42.671c0.212 0 0.424 0.002 0.635 0.005h191.968c2.89 0.001 5.712 0.289 8.44 0.837l-0.273-0.046c2.813 0.57 5.268 1.318 7.62 2.269l-0.286-0.102c0.253 0.098 0.499 0.188 0.75 0.292 2.665 1.109 4.939 2.323 7.079 3.725l-0.163-0.1c0.324 0.198 0.473 0.295 0.622 0.392l-0.164-0.1c2.355 1.583 4.412 3.269 6.296 5.129l-0.005-0.004c0.113 0.112 0.222 0.22 0.33 0.33l0.004 0.004c1.924 1.928 3.666 4.040 5.195 6.307l0.096 0.152c-0.068-0.11-0.041-0.069-0.014-0.028l0.097 0.153c0.010 0.016 0.031 0.026 0.042 0.042 1.283 1.953 2.483 4.199 3.478 6.553l0.105 0.28c0.124 0.294 0.258 0.579 0.375 0.875 0.82 1.987 1.552 4.356 2.075 6.804l0.050 0.28c0.052 0.251 0.12 0.498 0.167 0.75 0.471 2.365 0.744 5.086 0.75 7.87v192.005c0.003 0.174 0.004 0.378 0.004 0.584 0 23.567-19.104 42.671-42.671 42.671-0.22 0-0.439-0.002-0.658-0.005h0.033c-23.296-0.352-42.046-19.32-42.046-42.666 0-0.205 0.001-0.41 0.004-0.615v0.031-89l-208.167 208.167z" />
<glyph unicode="&#xe95a;" d="M938.667 448c0-235.641-191.025-426.667-426.667-426.667s-426.667 191.025-426.667 426.667c0 235.641 191.025 426.667 426.667 426.667s426.667-191.025 426.667-426.667z" />
<glyph unicode="&#xe95b;" d="M597.333 448c0-47.128-38.205-85.333-85.333-85.333s-85.333 38.205-85.333 85.333c0 47.128 38.205 85.333 85.333 85.333s85.333-38.205 85.333-85.333z" />
<glyph unicode="&#xe95c;" d="M512 405.333c-10.923 0-21.845 4.181-30.165 12.501-16.683 16.683-16.683 43.648 0 60.331l298.667 298.667c16.683 16.683 43.648 16.683 60.331 0s16.683-43.648 0-60.331l-298.667-298.667c-8.32-8.32-19.243-12.501-30.165-12.501z" />
<glyph unicode="&#xe95d;" d="M681.515 436.523c-6.059-88.661-79.36-159.189-169.515-159.189-94.123 0-170.667 76.544-170.667 170.667 0 90.155 70.528 163.456 159.189 169.515l77.525 77.525c-21.12 5.675-43.179 8.96-66.048 8.96-141.184 0-256-114.816-256-256s114.816-256 256-256 256 114.816 256 256c0 22.869-3.285 44.928-8.96 66.048l-77.525-77.525z" />
<glyph unicode="&#xe95e;" d="M826.24 581.248c17.408-40.96 27.093-86.016 27.093-133.248 0-188.203-153.131-341.333-341.333-341.333s-341.333 153.131-341.333 341.333 153.131 341.333 341.333 341.333c47.232 0 92.288-9.685 133.248-27.093l63.829 63.829c-59.008 30.891-125.995 48.597-197.077 48.597-235.264 0-426.667-191.403-426.667-426.667s191.403-426.667 426.667-426.667 426.667 191.403 426.667 426.667c0 71.083-17.707 138.069-48.597 197.077l-63.829-63.829z" />
<glyph unicode="&#xe95f;" d="M938.667 448c0-235.641-191.025-426.667-426.667-426.667s-426.667 191.025-426.667 426.667c0 235.641 191.025 426.667 426.667 426.667s426.667-191.025 426.667-426.667z" />
<glyph unicode="&#xe960;" d="M507.008 363.819h-0.256c-28.587 0-50.645 25.813-45.739 53.973 14.933 85.888 81.792 88.875 81.792 142.208 0 14.805-2.56 47.957-38.229 47.957-19.285 0-30.635-12.331-37.248-25.472-8.917-17.792-29.483-26.539-49.067-23.083v0c-29.696 5.291-47.915 37.12-35.328 64.512 18.005 39.125 54.869 80.085 127.872 80.085 118.443 0 134.315-92.757 134.315-136.363 0-103.083-76.757-106.923-92.672-166.315-5.76-21.419-23.253-37.504-45.44-37.504zM568.533 254.592c0-17.579-5.419-32.427-16.299-44.501-10.923-12.032-25.216-18.091-42.795-18.091-17.664 0-31.915 6.059-42.795 18.091-10.88 12.075-16.384 26.923-16.384 44.501 0 17.195 5.504 32 16.384 44.587 10.88 12.501 25.131 18.731 42.795 18.731 17.579 0 31.872-6.229 42.795-18.731 10.88-12.587 16.299-27.435 16.299-44.587z" />
<glyph unicode="&#xe961;" d="M213.333 789.333h597.333c70.692 0 128-57.308 128-128v-426.667c0-70.692-57.308-128-128-128h-597.333c-70.692 0-128 57.308-128 128v426.667c0 70.692 57.308 128 128 128z" />
<glyph unicode="&#xe962;" d="M810.667 618.667c0-47.128-38.205-85.333-85.333-85.333s-85.333 38.205-85.333 85.333c0 47.128 38.205 85.333 85.333 85.333s85.333-38.205 85.333-85.333z" />
<glyph unicode="&#xe963;" d="M170.667 277.333c0-23.564 19.103-42.667 42.667-42.667v0h597.333c23.564 0 42.667 19.103 42.667 42.667v0c0 58.197-72.021 128-106.667 128s-66.048-42.667-149.333-42.667c-104.192 0-170.667 213.333-256 213.333s-170.667-186.112-170.667-298.667z" />
<glyph unicode="&#xe964;" glyph-name="laptop-settings" d="M768 896c-12.523 0-24.782-1.057-36.75-3.083l-7.375-30.542c-11.456-47.445-60.298-75.657-107.125-61.833l-25.708 7.625c-15.445-19.904-27.82-42.531-36.375-67l19.083-18.333c34.88-33.579 34.88-89.421 0-123l-19.083-18.375c8.555-24.469 20.908-47.033 36.375-66.958l25.708 7.583c46.827 13.845 95.669-14.367 107.125-61.833l7.375-30.542c11.968-2.005 24.249-3.042 36.75-3.042 12.523 0 24.782 1.057 36.75 3.083l7.375 30.542c11.456 47.467 60.298 75.679 107.125 61.833l25.708-7.625c15.445 19.904 27.82 42.531 36.375 67l-19.083 18.333c-34.88 33.557-34.88 89.443 0 123l19.083 18.333c-8.555 24.469-20.908 47.075-36.375 67l-25.708-7.625c-46.827-13.845-95.669 14.367-107.125 61.833l-7.375 30.542c-11.968 2.027-24.227 3.083-36.75 3.083zM181.333 768c-41.173 0-74.667-33.493-74.667-74.667v-405.333c0-41.173 33.493-74.667 74.667-74.667h661.333c41.173 0 74.667 33.493 74.667 74.667v139.75c-43.093-27.733-94.293-43.75-149.333-43.75-153.173 0-277.333 124.16-277.333 277.333 0 37.76 7.68 73.813 21.333 106.667h-330.667zM768 725.333c35.349 0 64-28.651 64-64s-28.651-64-64-64c-35.349 0-64 28.651-64 64s28.651 64 64 64zM53.333 149.333c-0.135 0.002-0.293 0.003-0.453 0.003-17.675 0-32.003-14.328-32.003-32.003s14.328-32.003 32.003-32.003c0.159 0 0.318 0.001 0.477 0.003h917.309c0.135-0.002 0.293-0.003 0.453-0.003 17.675 0 32.003 14.328 32.003 32.003s-14.328 32.003-32.003 32.003c-0.159 0-0.318-0.001-0.477-0.003h-917.309z" />
<glyph unicode="&#xe965;" glyph-name="last" d="M768 832c-23.552 0-42.667-19.115-42.667-42.667v-682.667c0-23.552 19.115-42.667 42.667-42.667s42.667 19.115 42.667 42.667v682.667c0 23.552-19.115 42.667-42.667 42.667zM286.165 819.499c-16.661 16.661-43.669 16.661-60.331 0s-16.661-43.669 0-60.331l311.168-311.168-311.168-311.168c-16.661-16.661-16.661-43.669 0-60.331 8.341-8.341 19.243-12.501 30.165-12.501s21.824 4.16 30.165 12.501l341.333 341.333c16.661 16.661 16.661 43.669 0 60.331l-341.333 341.333z" />
<glyph unicode="&#xe966;" d="M213.333 362.667h725.333c47.147 0 85.333 38.187 85.333 85.333v0c0 47.147-38.187 85.333-85.333 85.333h-725.333v-170.667z" />
<glyph unicode="&#xe967;" d="M256 631.211c0 26.24-31.659 39.424-50.261 20.949l-175.104-173.867c-16.853-16.683-16.853-43.947 0-60.629l175.104-173.867c18.603-18.432 50.261-5.205 50.261 20.992v366.421z" />
<glyph unicode="&#xe968;" glyph-name="link" d="M277.333 682.667c-129.102 0-234.667-105.564-234.667-234.667s105.564-234.667 234.667-234.667h85.333c0.179-0.003 0.391-0.004 0.603-0.004 23.567 0 42.671 19.104 42.671 42.671s-19.104 42.671-42.671 42.671c-0.212 0-0.424-0.002-0.635-0.005h-85.301c-82.994 0-149.333 66.34-149.333 149.333s66.34 149.333 149.333 149.333h85.333c0.179-0.003 0.391-0.004 0.603-0.004 23.567 0 42.671 19.104 42.671 42.671s-19.104 42.671-42.671 42.671c-0.212 0-0.424-0.002-0.635-0.005h-85.301zM661.333 682.667c-0.179 0.003-0.391 0.004-0.603 0.004-23.567 0-42.671-19.104-42.671-42.671s19.104-42.671 42.671-42.671c0.212 0 0.424 0.002 0.635 0.005h85.301c82.994 0 149.333-66.34 149.333-149.333s-66.34-149.333-149.333-149.333h-85.333c-0.179 0.003-0.391 0.004-0.603 0.004-23.567 0-42.671-19.104-42.671-42.671s19.104-42.671 42.671-42.671c0.212 0 0.424 0.002 0.635 0.005h85.301c129.102 0 234.667 105.564 234.667 234.667s-105.564 234.667-234.667 234.667h-85.333zM256 490.667c-0.179 0.003-0.391 0.004-0.603 0.004-23.567 0-42.671-19.104-42.671-42.671s19.104-42.671 42.671-42.671c0.212 0 0.424 0.002 0.635 0.005h511.968c0.179-0.003 0.391-0.004 0.603-0.004 23.567 0 42.671 19.104 42.671 42.671s-19.104 42.671-42.671 42.671c-0.212 0-0.424-0.002-0.635-0.005h-511.968z" />
<glyph unicode="&#xe969;" d="M170.667 533.333c0 188.501 152.832 341.333 341.333 341.333s341.333-152.832 341.333-341.333c0-152.064-173.397-369.152-273.024-481.28-36.309-40.875-100.309-40.875-136.619 0-99.627 112.128-273.024 329.216-273.024 481.28z" />
<glyph unicode="&#xe96a;" d="M640 533.333c0-70.692-57.308-128-128-128s-128 57.308-128 128c0 70.692 57.308 128 128 128s128-57.308 128-128z" />
<glyph unicode="&#xe96b;" d="M853.333 746.667v-597.333c0-70.699-57.301-128-128-128h-426.667c-70.699 0-128 57.301-128 128v597.333c0 70.699 57.301 128 128 128h426.667c70.699 0 128-57.301 128-128z" />
<glyph unicode="&#xe96c;" d="M768 533.333h-298.667c-47.147 0-85.333-38.187-85.333-85.333s38.187-85.333 85.333-85.333h298.667v170.667z" />
<glyph unicode="&#xe96d;" d="M707.371 271.744c0-32.896 39.68-49.451 63.061-26.283l166.101 164.523c21.12 20.949 21.12 55.083 0 76.032l-166.101 164.523c-23.381 23.125-63.061 6.571-63.061-26.283v-352.512z" />
<glyph unicode="&#xe96e;" d="M322.091 167.253h239.403v-145.92h-239.403v145.92z" />
<glyph unicode="&#xe96f;" d="M404.224 425.216h221.781v-162.688h-221.781v162.688z" />
<glyph unicode="&#xe970;" d="M512 874.667c-70.699 0-128-57.301-128-128s57.301-128 128-128 128 57.301 128 128-57.301 128-128 128z" />
<glyph unicode="&#xe971;" d="M782.72 142.72l-100.053 71.936v32.043c0 0 66.389-12.032 69.973-12.032 18.261 0 35.499 8.533 46.635 23.68 13.312 18.133 15.147 41.728 4.693 61.568l-98.645 187.648c-22.187 42.24-65.621 68.437-113.323 68.437h-160.043c-47.701 0-91.093-26.197-113.323-68.437l-98.645-187.605c-10.453-19.883-8.661-43.477 4.693-61.568s35.456-26.795 57.515-22.656l59.136 10.965v-30.976l-100.053-73.003c-23.723-16.981-33.621-47.104-24.661-74.923s34.56-46.464 63.744-46.464h68.395c-1.792 4.992-3.413 10.069-4.523 15.317-5.504 25.899-2.944 50.56 5.419 72.363 9.557 24.789 34.517 40.32 61.141 40.32h26.027c35.541 0 69.888-10.539 99.2-29.696l-84.565-12.971c-23.552 0-42.667-19.072-42.667-42.667s19.115-42.667 42.667-42.667h292.181c29.184 0 54.827 18.688 63.787 46.464s-0.981 57.899-24.704 74.923zM426.667 292.651c0 47.147 38.187 112.683 85.333 112.683s85.333-65.536 85.333-112.683c0-47.104-38.187 27.349-85.333 27.349s-85.333-74.453-85.333-27.349z" />
<glyph unicode="&#xe972;" glyph-name="menu-vertical" d="M512 234.667c-47.128 0-85.333-38.205-85.333-85.333s38.205-85.333 85.333-85.333v0c47.128 0 85.333 38.205 85.333 85.333s-38.205 85.333-85.333 85.333v0zM512 533.333c-47.128 0-85.333-38.205-85.333-85.333s38.205-85.333 85.333-85.333v0c47.128 0 85.333 38.205 85.333 85.333s-38.205 85.333-85.333 85.333v0zM512 832c-47.128 0-85.333-38.205-85.333-85.333s38.205-85.333 85.333-85.333v0c47.128 0 85.333 38.205 85.333 85.333s-38.205 85.333-85.333 85.333v0z" />
<glyph unicode="&#xe973;" d="M213.333 789.333c-70.699 0-128-57.301-128-128v-93.184c49.621-17.621 85.333-64.512 85.333-120.149s-35.712-102.528-85.333-120.149v-93.184c0-70.699 57.301-128 128-128h512v682.667h-512z" />
<glyph unicode="&#xe974;" d="M938.667 234.667v93.184c-49.621 17.621-85.333 64.512-85.333 120.149s35.712 102.528 85.333 120.149v93.184c0 70.699-57.301 128-128 128h-85.333v-682.667h85.333c70.699 0 128 57.301 128 128z" />
<glyph unicode="&#xe975;" d="M417.408 598.741c4.181 7.851 12.331 12.757 21.205 12.757s17.067-4.907 21.205-12.757l40.277-75.947c0.469-0.896 1.109-1.621 1.92-2.219s1.749-0.981 2.731-1.152l84.651-14.848c8.747-1.536 15.957-7.765 18.688-16.256 2.731-8.448 0.597-17.749-5.589-24.149l-59.776-61.781c-0.683-0.725-1.195-1.579-1.536-2.517-0.299-0.939-0.384-1.963-0.256-2.944l12.032-85.12c1.237-8.789-2.475-17.579-9.643-22.827-7.211-5.248-16.683-6.059-24.661-2.133l-77.184 37.76c-0.896 0.427-1.877 0.683-2.859 0.683s-1.963-0.213-2.859-0.64l-77.184-37.76c-7.979-3.925-17.493-3.072-24.661 2.133-7.211 5.248-10.923 13.995-9.643 22.827l12.032 85.12c0.128 0.981 0.043 2.005-0.256 2.944s-0.811 1.835-1.536 2.517l-59.776 61.781c-6.187 6.4-8.32 15.659-5.589 24.149 2.731 8.448 9.941 14.677 18.688 16.256l84.651 14.848c0.981 0.171 1.92 0.555 2.731 1.152s1.451 1.323 1.92 2.219l40.277 75.904z" />
<glyph unicode="&#xe976;" d="M305.365 554.325c7.040 13.312 20.907 21.675 35.968 21.675s28.928-8.363 36.011-21.675l68.309-128.811c0.768-1.493 1.92-2.773 3.285-3.755s2.944-1.664 4.608-1.92l143.616-25.173c14.848-2.603 27.051-13.184 31.744-27.52 4.651-14.336 1.024-30.080-9.472-40.917l-101.376-104.789c-1.152-1.237-2.048-2.688-2.56-4.267-0.512-1.621-0.683-3.285-0.427-4.992l20.437-144.341c2.091-14.933-4.181-29.824-16.384-38.699s-28.288-10.24-41.856-3.627l-130.944 64.043c-1.621 0.725-3.285 1.109-4.992 1.109s-3.371-0.384-4.864-1.109l-130.944-64.043c-13.568-6.613-29.653-5.205-41.856 3.627-12.203 8.875-18.517 23.723-16.384 38.699l20.437 144.341c0.256 1.664 0.085 3.371-0.427 4.992s-1.365 3.072-2.56 4.267l-101.376 104.789c-10.496 10.837-14.123 26.581-9.472 40.917s16.853 24.917 31.744 27.52l143.616 25.173c1.664 0.299 3.243 0.981 4.608 1.92 1.365 0.981 2.475 2.261 3.285 3.755l68.224 128.811z" />
<glyph unicode="&#xe977;" d="M577.963 863.019c3.797 7.168 11.264 11.648 19.371 11.648s15.573-4.48 19.371-11.648l36.779-69.376c0.427-0.811 1.024-1.493 1.749-2.048s1.579-0.896 2.475-1.024l77.312-13.525c8.021-1.408 14.549-7.125 17.067-14.848s0.555-16.213-5.12-22.059l-54.613-56.405c-0.64-0.64-1.109-1.451-1.408-2.304s-0.341-1.792-0.256-2.688l11.008-77.739c1.152-8.021-2.261-16.043-8.832-20.821s-15.232-5.504-22.528-1.963l-70.528 34.475c-0.683 0.427-1.579 0.64-2.475 0.64s-1.792-0.213-2.645-0.597l-70.528-34.475c-7.296-3.584-15.957-2.816-22.528 1.963s-9.941 12.8-8.832 20.821l11.008 77.739c0.128 0.896 0.043 1.835-0.256 2.688s-0.725 1.664-1.408 2.304l-54.613 56.405c-5.632 5.845-7.595 14.336-5.12 22.059 2.517 7.723 9.088 13.44 17.067 14.848l77.312 13.525c0.896 0.171 1.749 0.512 2.475 1.024 0.725 0.555 1.323 1.237 1.749 2.048l36.949 69.333z" />
<glyph unicode="&#xe978;" d="M837.419 561.024c3.115 5.888 9.259 9.6 15.915 9.6s12.8-3.669 15.915-9.557l30.208-56.96c0.341-0.683 0.853-1.237 1.451-1.664s1.28-0.725 2.048-0.853l63.488-11.136c6.571-1.152 11.947-5.845 14.037-12.16 2.048-6.357 0.469-13.312-4.181-18.091l-44.843-46.336c-0.512-0.555-0.896-1.195-1.152-1.877-0.213-0.725-0.299-1.451-0.213-2.219l9.045-63.829c0.939-6.613-1.835-13.184-7.253-17.109-5.376-3.925-12.501-4.523-18.517-1.621l-57.899 28.331c-0.683 0.341-1.408 0.512-2.133 0.512s-1.493-0.171-2.176-0.469l-57.899-28.331c-6.016-2.944-13.099-2.304-18.517 1.621-5.376 3.925-8.192 10.496-7.253 17.109l9.045 63.829c0.128 0.725 0.043 1.493-0.213 2.219s-0.597 1.365-1.152 1.877l-44.843 46.336c-4.651 4.779-6.272 11.776-4.181 18.091s7.467 11.008 14.037 12.16l63.488 11.136c0.725 0.128 1.451 0.427 2.048 0.853s1.109 1.024 1.451 1.664l30.251 56.875z" />
<glyph unicode="&#xe979;" d="M768 149.333v554.667c0 70.699-57.301 128-128 128h-426.667c-70.699 0-128-57.301-128-128v-512c0-70.699 57.301-128 128-128h640c-47.147 0-85.333 38.187-85.333 85.333z" />
<glyph unicode="&#xe97a;" d="M597.333 362.667h-341.333c-23.552 0-42.667 19.115-42.667 42.667v0c0 23.552 19.115 42.667 42.667 42.667h341.333c23.552 0 42.667-19.115 42.667-42.667v0c0-23.552-19.115-42.667-42.667-42.667z" />
<glyph unicode="&#xe97b;" d="M597.333 192h-341.333c-23.552 0-42.667 19.115-42.667 42.667v0c0 23.552 19.115 42.667 42.667 42.667h341.333c23.552 0 42.667-19.115 42.667-42.667v0c0-23.552-19.115-42.667-42.667-42.667z" />
<glyph unicode="&#xe97c;" d="M853.333 661.333h-85.333v-512c0-47.147 38.187-85.333 85.333-85.333v0c47.147 0 85.333 38.187 85.333 85.333v426.667c0 47.147-38.187 85.333-85.333 85.333z" />
<glyph unicode="&#xe97d;" d="M576 661.333c-16.469 0-282.197 0-298.667 0-35.328 0-64-28.672-64-64s28.672-64 64-64c16.469 0 282.197 0 298.667 0 35.328 0 64 28.672 64 64s-28.672 64-64 64z" />
<glyph unicode="&#xe97e;" d="M213.333 789.333h597.333c70.692 0 128-57.308 128-128v-426.667c0-70.692-57.308-128-128-128h-597.333c-70.692 0-128 57.308-128 128v426.667c0 70.692 57.308 128 128 128z" />
<glyph unicode="&#xe97f;" d="M810.667 618.667c0-47.128-38.205-85.333-85.333-85.333s-85.333 38.205-85.333 85.333c0 47.128 38.205 85.333 85.333 85.333s85.333-38.205 85.333-85.333z" />
<glyph unicode="&#xe980;" d="M665.003 234.667h145.664c23.564 0 42.667 19.103 42.667 42.667v0c0 58.197-72.021 128-106.667 128s-66.048-42.667-149.333-42.667c-104.235 0-170.667 213.333-256 213.333-5.564-0.032-10.939-0.778-16.058-2.149l0.442 0.101z" />
<glyph unicode="&#xe981;" d="M257.664 521.301c-50.125-67.735-82.006-151.694-86.948-242.819l-0.050-1.149c0-23.564 19.103-42.667 42.667-42.667v0h331.008z" />
<glyph unicode="&#xe982;" d="M896 21.333c-11.781 0.003-22.446 4.78-30.165 12.501l-768 768c-7.41 7.665-11.977 18.12-11.977 29.641 0 23.564 19.103 42.667 42.667 42.667 11.521 0 21.976-4.567 29.653-11.989l767.988-767.988c7.718-7.721 12.492-18.386 12.492-30.165 0-23.561-19.097-42.661-42.657-42.667h-0.001z" />
<glyph unicode="&#xe983;" glyph-name="note" d="M224 832c-52.64 0-96-43.36-96-96v-576c0-52.64 43.36-96 96-96h373.333v202.667c0 53.408 42.592 96 96 96h202.667v373.333c0 52.64-43.36 96-96 96h-576zM330.667 661.375h362.667c17.664 0 32-14.336 32-32s-14.336-32-32-32h-362.667c-17.664 0-32 14.336-32 32s14.336 32 32 32zM330.667 512.042h277.333c17.664 0 32-14.336 32-32s-14.336-32-32-32h-277.333c-17.664 0-32 14.336-32 32s14.336 32 32 32zM704 298.667c-23.573 0-42.667-19.093-42.667-42.667v-173.208l215.875 215.875h-173.208z" />
<glyph unicode="&#xe984;" d="M384 106.667c0-70.699 57.301-128 128-128s128 57.301 128 128h-256z" />
<glyph unicode="&#xe985;" d="M810.667 504.875v58.581c0 163.541-125.995 306.133-289.493 311.040-169.131 5.12-307.84-130.475-307.84-298.496v-71.125c0-64.64-20.949-127.488-59.733-179.2l-49.067-65.408c-12.459-16.597-19.2-36.821-19.2-57.6v0c0-53.035 42.965-96 96-96h661.333c53.035 0 96 42.965 96 96v0c0 20.779-6.741 41.003-19.2 57.6l-49.067 65.408c-38.784 51.712-59.733 114.603-59.733 179.2z" />
<glyph unicode="&#xe986;" glyph-name="paper-plane" d="M751.637 784.939l-659.285-329.643c-10.048-5.013-16.704-14.933-17.6-26.133-0.875-11.179 4.181-22.016 13.312-28.544l106.389-75.989 557.184 460.309zM425.259 143.744l174.571-126.955c5.547-4.032 12.16-6.123 18.837-6.123 3.285 0 6.571 0.491 9.771 1.536 9.707 3.115 17.365 10.667 20.587 20.352l241.963 725.931-465.728-614.741zM390.763 168.832l504.64 666.155c-2.88 2.475-6.165 4.16-9.6 5.461l-656.299-542.165 60.139-180.395c3.755-11.285 13.483-19.563 25.237-21.461 11.733-1.92 23.595 2.859 30.72 12.395l45.077 60.096 0.085-0.085z" />
<glyph unicode="&#xe987;" d="M1024 789.333h-597.333c-47.147 0-85.333-38.187-85.333-85.333v-426.667h682.667v512z" />
<glyph unicode="&#xe988;" d="M917.333 533.333c0-94.257-66.859-170.667-149.333-170.667s-149.333 76.41-149.333 170.667c0 94.257 66.859 170.667 149.333 170.667s149.333-76.41 149.333-170.667z" />
<glyph unicode="&#xe989;" d="M512 533.333c0-23.564-19.103-42.667-42.667-42.667s-42.667 19.103-42.667 42.667c0 23.564 19.103 42.667 42.667 42.667s42.667-19.103 42.667-42.667z" />
<glyph unicode="&#xe98a;" d="M0 533.333l120.661 120.661c32.043 32.043 75.435 50.005 120.704 50.005h99.968v-342.315l149.547 60.501c38.656 15.659 82.944 6.656 112.427-22.869v0c42.795-42.795 40.107-112.981-5.845-152.363l-153.088-131.2c-38.955-33.365-88.619-51.627-139.904-51.371l-304.469 1.536v467.413z" />
<glyph unicode="&#xe98b;" d="M682.667 704c0-94.257-76.41-170.667-170.667-170.667s-170.667 76.41-170.667 170.667c0 94.257 76.41 170.667 170.667 170.667s170.667-76.41 170.667-170.667z" />
<glyph unicode="&#xe98c;" d="M298.667 554.667c0-58.91-47.756-106.667-106.667-106.667s-106.667 47.756-106.667 106.667c0 58.91 47.756 106.667 106.667 106.667s106.667-47.756 106.667-106.667z" />
<glyph unicode="&#xe98d;" d="M938.667 554.667c0-58.91-47.756-106.667-106.667-106.667s-106.667 47.756-106.667 106.667c0 58.91 47.756 106.667 106.667 106.667s106.667-47.756 106.667-106.667z" />
<glyph unicode="&#xe98e;" d="M640 149.333h-256c-70.699 0-128 66.859-128 149.333v0c0 82.475 57.301 149.333 128 149.333h256c70.699 0 128-66.859 128-149.333v0c0-82.475-57.301-149.333-128-149.333z" />
<glyph unicode="&#xe98f;" d="M919.509 362.667h-818.304c-55.893 0-101.205-45.312-101.205-101.205v-10.965c0-55.851 45.312-101.163 101.205-101.163h818.304c57.685 0 104.491 46.805 104.491 104.533v4.309c0 57.685-46.805 104.491-104.491 104.491z" />
<glyph unicode="&#xe990;" d="M192 64c-16.384 0-32.768 6.229-45.269 18.731-25.003 24.96-25.003 65.536 0 90.496l640 640c25.003 25.003 65.493 25.003 90.496 0 25.003-24.96 25.003-65.536 0-90.496l-640-640c-12.459-12.501-28.843-18.731-45.227-18.731z" />
<glyph unicode="&#xe991;" d="M896 213.333c0-82.475-66.859-149.333-149.333-149.333s-149.333 66.859-149.333 149.333c0 82.475 66.859 149.333 149.333 149.333s149.333-66.859 149.333-149.333z" />
<glyph unicode="&#xe992;" d="M426.667 682.667c0-82.475-66.859-149.333-149.333-149.333s-149.333 66.859-149.333 149.333c0 82.475 66.859 149.333 149.333 149.333s149.333-66.859 149.333-149.333z" />
<glyph unicode="&#xe993;" d="M131.669 639.147c9.472-70.528 46.549-232.619 192.725-378.795s308.224-183.253 378.795-192.725c51.115-11.051 106.539 2.987 146.261 42.709 62.123 62.123-162.901 287.147-225.024 225.024l-39.637-39.637-225.024 225.024 39.595 39.637c62.123 62.123-162.901 287.147-225.024 225.024-39.723-39.723-53.76-95.147-42.667-146.261z" />
<glyph unicode="&#xe994;" d="M174.464 785.536l224.981-224.981c61.995 62.165 61.995 162.773-0.128 224.896-62.037 62.037-162.688 62.080-224.853 0.085z" />
<glyph unicode="&#xe995;" d="M624.512 335.488l224.981-224.981c61.995 62.123 61.995 162.773-0.128 224.896-62.080 62.037-162.688 62.080-224.853 0.085z" />
<glyph unicode="&#xe996;" glyph-name="plus-math" d="M511.375 853.917c-23.296-0.352-42.046-19.32-42.046-42.666 0-0.205 0.001-0.41 0.004-0.615v0.031-320h-320c-0.179 0.003-0.391 0.004-0.603 0.004-23.567 0-42.671-19.104-42.671-42.671s19.104-42.671 42.671-42.671c0.212 0 0.424 0.002 0.635 0.005h319.968v-320c-0.003-0.179-0.004-0.391-0.004-0.603 0-23.567 19.104-42.671 42.671-42.671s42.671 19.104 42.671 42.671c0 0.212-0.002 0.424-0.005 0.635v-0.032 320h320c0.179-0.003 0.391-0.004 0.603-0.004 23.567 0 42.671 19.104 42.671 42.671s-19.104 42.671-42.671 42.671c-0.212 0-0.424-0.002-0.635-0.005h-319.968v320c0.003 0.174 0.004 0.378 0.004 0.584 0 23.567-19.104 42.671-42.671 42.671-0.22 0-0.439-0.002-0.658-0.005h0.033z" />
<glyph unicode="&#xe997;" d="M384 149.333h341.333c70.699 0 128 57.301 128 128v384l-170.667 213.333h-298.667c-70.699 0-128-57.301-128-128v-469.333c0-70.699 57.301-128 128-128z" />
<glyph unicode="&#xe998;" d="M469.333 149.333h-85.333c-70.699 0-128 57.301-128 128v469.333c-70.699 0-128-57.301-128-128v-469.333c0-70.699 57.301-128 128-128h341.333c70.699 0 128 57.301 128 128h-256z" />
<glyph unicode="&#xe999;" d="M682.667 746.667v128l170.667-213.333h-85.333c-47.147 0-85.333 38.187-85.333 85.333z" />
<glyph unicode="&#xe99a;" d="M764.715 549.632c-4.309 10.453-12.629 18.773-23.083 23.083-5.205 2.133-10.752 3.285-16.299 3.285h-110.336c-38.016 0-57.045-45.952-30.165-72.832l25.003-25.003-97.835-97.835-97.835 97.835c-16.683 16.683-43.648 16.683-60.331 0s-16.683-43.648 0-60.331l128-128c8.32-8.32 19.243-12.501 30.165-12.501s21.845 4.181 30.165 12.501l128 128 25.003-25.003c26.88-26.88 72.832-7.851 72.832 30.165v110.336c0 5.547-1.152 11.093-3.285 16.299z" />
<glyph unicode="&#xe99b;" d="M938.667 576v-314.027c-31.147 35.413-76.8 58.027-128 58.027-14.933 0-29.013-1.707-42.667-5.547v346.88h85.333c46.933 0 85.333-38.4 85.333-85.333z" />
<glyph unicode="&#xe99c;" d="M810.667 320c-14.805 0-28.971-2.475-42.667-6.016v390.016c0 70.699-57.301 128-128 128h-384c-70.699 0-128-57.301-128-128v-512c0-70.699 57.301-128 128-128h407.68c29.568-50.816 83.968-85.333 146.987-85.333 94.251 0 170.667 76.416 170.667 170.667s-76.416 170.667-170.667 170.667z" />
<glyph unicode="&#xe99d;" d="M541.013 277.333c-12.8-26.453-21.76-55.040-25.6-85.333h-216.747c-23.467 0-42.667 19.2-42.667 42.667s19.2 42.667 42.667 42.667h242.347z" />
<glyph unicode="&#xe99e;" d="M576 661.333c-16.469 0-239.531 0-256 0-35.328 0-64-28.672-64-64s28.672-64 64-64c16.469 0 239.531 0 256 0 35.328 0 64 28.672 64 64s-28.672 64-64 64z" />
<glyph unicode="&#xe99f;" d="M640 405.333c0-4.267-0.853-8.96-2.133-12.8-12.8-8.533-24.32-18.347-35.413-29.44-1.707-0.427-3.413-0.427-5.12-0.427h-298.667c-23.467 0-42.667 19.2-42.667 42.667s19.2 42.667 42.667 42.667h298.667c23.467 0 42.667-19.2 42.667-42.667z" />
<glyph unicode="&#xe9a0;" d="M810.667 362.667c-117.76 0-213.333-95.573-213.333-213.333s95.573-213.333 213.333-213.333 213.333 95.573 213.333 213.333-95.573 213.333-213.333 213.333zM945.067 118.187c-2.987-13.227-8.107-26.027-14.933-37.973-25.6-43.947-72.107-68.693-119.893-68.693-23.040 0-46.933 5.973-68.693 18.347-32 18.347-54.613 48.213-64 83.627-9.813 35.84-4.693 72.96 13.653 104.96 31.147 54.187 93.867 78.080 151.893 64.427l5.12 10.667c8.107 15.787 30.72 15.787 38.4-0.427l30.293-61.867c5.973-12.373-1.28-27.307-15.36-30.293l-67.413-13.227c-17.493-3.413-31.147 14.507-23.040 30.293l2.133 4.693c-26.453 0.853-52.48-11.947-66.56-36.267-9.813-17.067-12.373-37.12-7.253-56.32s17.067-34.987 34.133-44.8c35.413-20.48 80.64-8.107 101.12 26.88 3.84 6.4 6.4 13.227 8.107 20.48 4.267 17.493 21.333 28.16 38.4 23.893 17.493-3.84 28.16-21.333 23.893-38.4z" />
<glyph unicode="&#xe9a1;" d="M908.075 734.293l-132.437 131.2c-18.645 18.475-50.304 5.248-50.304-20.949v-55.211h-341.333c-141.397 0-256-114.603-256-256 0-47.104 38.187-85.333 85.333-85.333s85.333 38.229 85.333 85.333c0 47.147 38.187 85.333 85.333 85.333h341.333v-55.211c0-26.24 31.659-39.424 50.261-20.949l132.437 131.2c16.896 16.683 16.896 43.904 0.043 60.587z" />
<glyph unicode="&#xe9a2;" d="M140.629 161.109l132.437-131.2c18.645-18.432 50.261-5.248 50.261 20.949v55.211h341.333c141.397 0 256 114.603 256 256 0 47.104-38.187 85.333-85.333 85.333s-85.333-38.229-85.333-85.333c0-47.147-38.187-85.333-85.333-85.333h-341.333v55.211c0 26.24-31.659 39.424-50.261 20.949l-132.437-131.2c-16.853-16.64-16.853-43.861 0-60.587z" />
<glyph unicode="&#xe9a3;" glyph-name="right-arrow" d="M85.333 405.333h750.336l-140.501-140.501c-16.661-16.661-16.661-43.669 0-60.331 8.341-8.341 19.243-12.501 30.165-12.501s21.824 4.16 30.165 12.501l213.333 213.333c8 7.979 12.501 18.837 12.501 30.165s-4.501 22.165-12.501 30.165l-213.333 213.333c-16.661 16.661-43.669 16.661-60.331 0s-16.661-43.669 0-60.331l140.501-140.501h-750.336c-23.552 0-42.667-19.115-42.667-42.667s19.115-42.667 42.667-42.667z" />
<glyph unicode="&#xe9a4;" d="M640 192c0-23.564-19.103-42.667-42.667-42.667s-42.667 19.103-42.667 42.667c0 23.564 19.103 42.667 42.667 42.667s42.667-19.103 42.667-42.667z" />
<glyph unicode="&#xe9a5;" d="M469.333 192c0-23.564-19.103-42.667-42.667-42.667s-42.667 19.103-42.667 42.667c0 23.564 19.103 42.667 42.667 42.667s42.667-19.103 42.667-42.667z" />
<glyph unicode="&#xe9a6;" d="M298.667 192c0-23.564-19.103-42.667-42.667-42.667s-42.667 19.103-42.667 42.667c0 23.564 19.103 42.667 42.667 42.667s42.667-19.103 42.667-42.667z" />
<glyph unicode="&#xe9a7;" d="M298.667 362.667c0-23.564-19.103-42.667-42.667-42.667s-42.667 19.103-42.667 42.667c0 23.564 19.103 42.667 42.667 42.667s42.667-19.103 42.667-42.667z" />
<glyph unicode="&#xe9a8;" d="M469.333 362.667c0-23.564-19.103-42.667-42.667-42.667s-42.667 19.103-42.667 42.667c0 23.564 19.103 42.667 42.667 42.667s42.667-19.103 42.667-42.667z" />
<glyph unicode="&#xe9a9;" d="M640 362.667c0-23.564-19.103-42.667-42.667-42.667s-42.667 19.103-42.667 42.667c0 23.564 19.103 42.667 42.667 42.667s42.667-19.103 42.667-42.667z" />
<glyph unicode="&#xe9aa;" d="M810.667 362.667c0-23.564-19.103-42.667-42.667-42.667s-42.667 19.103-42.667 42.667c0 23.564 19.103 42.667 42.667 42.667s42.667-19.103 42.667-42.667z" />
<glyph unicode="&#xe9ab;" d="M810.667 533.333c0-23.564-19.103-42.667-42.667-42.667s-42.667 19.103-42.667 42.667c0 23.564 19.103 42.667 42.667 42.667s42.667-19.103 42.667-42.667z" />
<glyph unicode="&#xe9ac;" d="M640 533.333c0-23.564-19.103-42.667-42.667-42.667s-42.667 19.103-42.667 42.667c0 23.564 19.103 42.667 42.667 42.667s42.667-19.103 42.667-42.667z" />
<glyph unicode="&#xe9ad;" d="M469.333 533.333c0-23.564-19.103-42.667-42.667-42.667s-42.667 19.103-42.667 42.667c0 23.564 19.103 42.667 42.667 42.667s42.667-19.103 42.667-42.667z" />
<glyph unicode="&#xe9ae;" d="M408.661 661.333c-32.939-75.264-107.904-128-195.328-128-30.379 0-59.179 6.571-85.333 18.005v-359.339c0-70.699 57.301-128 128-128h512c70.699 0 128 57.301 128 128v469.333h-487.339z" />
<glyph unicode="&#xe9af;" d="M768 832h-359.339c11.435-26.155 18.005-54.955 18.005-85.333s-6.571-59.179-18.005-85.333c-32.939-75.264-107.904-128-195.328-128-30.379 0-59.179 6.571-85.333 18.005v-90.795c27.051-8.064 55.68-12.544 85.333-12.544 135.253 0 249.387 89.984 286.123 213.333h396.544v42.667c0 70.699-57.301 128-128 128z" />
<glyph unicode="&#xe9b0;" d="M426.667 746.667c0-117.821-95.513-213.333-213.333-213.333s-213.333 95.513-213.333 213.333c0 117.821 95.513 213.333 213.333 213.333s213.333-95.513 213.333-213.333z" />
<glyph unicode="&#xe9b1;" d="M304.213 701.013l-49.579 61.909-9.301 111.744c-1.28 15.36-13.483 27.989-29.312 29.312-17.707 1.493-33.195-11.648-34.688-29.312l-10.667-128-0.085-1.152c-0.811-10.795 3.541-21.76 12.587-29.013l75.819-60.715c11.52-9.216 28.245-9.6 40.235 0 13.867 11.093 16.128 31.36 4.992 45.227z" />
<glyph unicode="&#xe9b2;" glyph-name="search" d="M437.333 832c-170.335 0-309.333-138.999-309.333-309.333s138.999-309.333 309.333-309.333c69.827 0 134.164 23.616 186.042 62.917l199.792-199.75c7.778-8.092 18.692-13.118 30.781-13.118 23.567 0 42.671 19.104 42.671 42.671 0 12.089-5.027 23.003-13.104 30.767l-0.014 0.013-199.75 199.792c39.301 51.878 62.917 116.214 62.917 186.042 0 170.335-138.999 309.333-309.333 309.333zM437.333 746.667c124.217 0 224-99.783 224-224 0-59.642-23.167-113.506-60.833-153.542-3.695-2.695-6.847-5.847-9.457-9.421l-0.084-0.121c-40.044-37.715-93.941-60.917-153.625-60.917-124.217 0-224 99.783-224 224s99.783 224 224 224z" />
<glyph unicode="&#xe9b3;" glyph-name="search-client" d="M512 874.667c-117.821 0-213.333-95.513-213.333-213.333s95.513-213.333 213.333-213.333v0c117.821 0 213.333 95.513 213.333 213.333s-95.513 213.333-213.333 213.333v0zM810.667 403.208c-93.867 0-170.667-76.8-170.667-170.667 0-36.267 10.675-68.267 29.875-96l-104.542-104.542c-12.8-10.667-12.792-31.992-2.125-44.792 6.4-6.4 14.925-8.542 23.458-8.542s17.058 2.142 23.458 8.542l104.542 104.542c27.733-19.2 59.733-29.875 96-29.875 93.867 0 170.667 76.8 170.667 170.667s-76.8 170.667-170.667 170.667zM266.667 362.667c-53.333 0-96-42.667-96-96v-32c0-119.467 149.333-213.333 341.333-213.333 4.267 14.933 10.667 29.867 21.333 42.667l83.208 83.208c-12.8 25.6-19.208 57.592-19.208 87.458 0 49.067 17.067 91.733 42.667 128h-373.333zM810.667 341.333c59.733 0 106.667-46.933 106.667-106.667s-46.933-106.667-106.667-106.667c-59.733 0-106.667 46.933-106.667 106.667s46.933 106.667 106.667 106.667z" />
<glyph unicode="&#xe9b4;" d="M682.667 152.405c28.928 16.683 62.251 18.091 91.093 6.997 24.064-9.259 51.584-1.579 67.925 18.347 29.141 35.541 52.651 75.861 69.163 119.68 9.429 25.045 0.512 52.565-19.925 69.888-22.997 19.371-37.589 48.213-37.589 80.683s14.592 61.312 37.547 80.768c20.437 17.323 29.397 44.8 19.925 69.888-16.512 43.776-39.979 84.139-69.163 119.68-16.341 19.925-43.861 27.605-67.925 18.347-28.8-11.179-62.123-9.771-91.051 6.912-29.013 16.768-46.933 45.056-51.627 75.733-3.84 25.088-23.723 45.141-48.768 49.408-22.869 3.883-46.336 5.931-70.272 5.931s-47.403-2.048-70.272-5.931c-25.045-4.267-44.885-24.32-48.768-49.408-4.693-30.677-22.613-58.965-51.627-75.733-28.928-16.683-62.251-18.091-91.093-6.955-24.064 9.259-51.584 1.579-67.925-18.347-29.141-35.541-52.608-75.861-69.12-119.68-9.472-25.045-0.512-52.565 19.925-69.845 22.955-19.456 37.547-48.299 37.547-80.768s-14.592-61.312-37.547-80.768c-20.437-17.323-29.397-44.8-19.925-69.888 16.512-43.776 39.979-84.139 69.163-119.68 16.341-19.925 43.861-27.605 67.925-18.347 28.8 11.179 62.123 9.771 91.051-6.912 29.013-16.768 46.933-45.056 51.627-75.733 3.84-25.088 23.723-45.141 48.768-49.408 22.869-3.883 46.336-5.931 70.272-5.931s47.403 2.048 70.272 5.931c25.045 4.224 44.928 24.277 48.768 49.408 4.693 30.677 22.613 58.965 51.627 75.733z" />
<glyph unicode="&#xe9b5;" d="M512 618.667c-94.251 0-170.667-76.416-170.667-170.667s76.416-170.667 170.667-170.667 170.667 76.416 170.667 170.667-76.416 170.667-170.667 170.667z" />
<glyph unicode="&#xe9b6;" glyph-name="sewing-tape-measure" d="M309.333 853.333c-173.44 0-309.333-88.96-309.333-202.667 0-4.907 0.193-9.598 0.833-14.292-0.64-2.133-0.833-4.695-0.833-7.042v-277.333c0-146.987 119.68-266.667 266.667-266.667h757.333v426.667h-170.667v-170.667c0-17.707-14.293-32-32-32s-32 14.293-32 32v170.667h-106.667v-170.667c0-17.707-14.293-32-32-32s-32 14.293-32 32v170.667h-117.333v-170.667c0-17.707-14.293-32-32-32s-32 14.293-32 32v170.667h-106.667v-170.667c0-17.707-14.293-32-32-32s-32 14.293-32 32v172.792c-11.733 1.28-23.448 2.987-34.542 5.333-34.987 6.72-66.718 17.963-92.958 32.417-13.12 7.227-24.907 15.257-35 23.917s-18.493 17.948-25 27.708c-9.813 14.933-15.167 30.74-15.167 47.167 0 75.093 112.427 138.667 245.333 138.667s245.333-63.573 245.333-138.667c0-17.707 14.293-32 32-32s32 14.293 32 32c0 113.707-135.893 202.667-309.333 202.667zM309.333 693.333c-35.346 0-64-19.103-64-42.667s28.654-42.667 64-42.667v0c35.346 0 64 19.103 64 42.667s-28.654 42.667-64 42.667v0z" />
<glyph unicode="&#xe9b7;" glyph-name="sort" d="M534.123 780.459c-12.352 11.84-31.872 11.84-44.224 0l-245.333-234.667c-9.451-9.045-12.437-22.912-7.573-35.051s16.597-20.075 29.675-20.075h490.667c13.056 0 24.832 7.957 29.717 20.075 4.864 12.117 1.856 26.005-7.573 35.051l-245.355 234.667zM757.333 405.333h-490.667c-13.077 0-24.832-7.957-29.696-20.075s-1.856-26.005 7.573-35.051l245.333-234.667c6.187-5.909 14.144-8.875 22.123-8.875s15.936 2.965 22.123 8.875l245.333 234.667c9.429 9.045 12.437 22.912 7.573 35.051-4.864 12.117-16.64 20.075-29.696 20.075z" />
<glyph unicode="&#xe9b8;" glyph-name="sort-down" d="M821.333 682.667h-618.667c-12.16 0-23.296-6.891-28.693-17.813-5.397-10.901-4.117-23.936 3.243-33.6l309.333-405.333c6.080-7.936 15.467-12.587 25.451-12.587s19.371 4.651 25.429 12.587l309.333 405.333c7.381 9.664 8.64 22.699 3.243 33.6-5.376 10.923-16.512 17.813-28.672 17.813z" />
<glyph unicode="&#xe9b9;" glyph-name="sort-up" d="M850.027 231.147c5.397 10.901 4.117 23.936-3.243 33.6l-309.333 405.333c-12.117 15.872-38.741 15.872-50.88 0l-309.333-405.333c-7.381-9.664-8.64-22.699-3.243-33.6 5.376-10.923 16.512-17.813 28.672-17.813h618.667c12.16 0 23.296 6.891 28.693 17.813z" />
<glyph unicode="&#xe9ba;" d="M902.613 102.357c60.331 90.368 90.155 202.88 74.709 322.731-27.179 210.688-199.637 379.989-410.752 403.797-283.648 32-523.904-189.056-523.904-466.219 0-96.555 29.184-186.325 79.189-260.949 15.829-23.637 42.624-37.717 71.125-37.717h637.995c28.757 0 55.637 14.464 71.637 38.357z" />
<glyph unicode="&#xe9bb;" d="M896 362.667c0-23.564-19.103-42.667-42.667-42.667s-42.667 19.103-42.667 42.667c0 23.564 19.103 42.667 42.667 42.667s42.667-19.103 42.667-42.667z" />
<glyph unicode="&#xe9bc;" d="M480 418.091c-30.592-17.664-41.088-56.832-23.424-87.424s56.832-41.088 87.424-23.424c30.592 17.664 318.208 216.832 300.544 247.424s-333.952-118.912-364.544-136.576z" />
<glyph unicode="&#xe9bd;" d="M213.333 362.667c0-23.564-19.103-42.667-42.667-42.667s-42.667 19.103-42.667 42.667c0 23.564 19.103 42.667 42.667 42.667s42.667-19.103 42.667-42.667z" />
<glyph unicode="&#xe9be;" d="M554.667 704c0-23.564-19.103-42.667-42.667-42.667s-42.667 19.103-42.667 42.667c0 23.564 19.103 42.667 42.667 42.667s42.667-19.103 42.667-42.667z" />
<glyph unicode="&#xe9bf;" d="M259.072 192c0-23.564-19.103-42.667-42.667-42.667s-42.667 19.103-42.667 42.667c0 23.564 19.103 42.667 42.667 42.667s42.667-19.103 42.667-42.667z" />
<glyph unicode="&#xe9c0;" d="M384 658.261c0-23.564-19.103-42.667-42.667-42.667s-42.667 19.103-42.667 42.667c0 23.564 19.103 42.667 42.667 42.667s42.667-19.103 42.667-42.667z" />
<glyph unicode="&#xe9c1;" d="M725.333 658.261c0-23.564-19.103-42.667-42.667-42.667s-42.667 19.103-42.667 42.667c0 23.564 19.103 42.667 42.667 42.667s42.667-19.103 42.667-42.667z" />
<glyph unicode="&#xe9c2;" d="M850.261 192c0-23.564-19.103-42.667-42.667-42.667s-42.667 19.103-42.667 42.667c0 23.564 19.103 42.667 42.667 42.667s42.667-19.103 42.667-42.667z" />
<glyph unicode="&#xe9c3;" d="M259.072 533.333c0-23.564-19.103-42.667-42.667-42.667s-42.667 19.103-42.667 42.667c0 23.564 19.103 42.667 42.667 42.667s42.667-19.103 42.667-42.667z" />
<glyph unicode="&#xe9c4;" d="M896 320h-42.667c0 51.669 0 108.117 0 128 0 188.501-152.832 341.333-341.333 341.333s-341.333-152.832-341.333-341.333c0-19.883 0-76.331 0-128h-42.667l-42.667-128h853.333l-42.667 128z" />
<glyph unicode="&#xe9c5;" d="M85.333 192h853.333v-42.667c0-47.147-38.187-85.333-85.333-85.333h-682.667c-47.147 0-85.333 38.187-85.333 85.333v42.667z" />
<glyph unicode="&#xe9c6;" d="M896 320h-85.333v128c0 164.651-134.016 298.667-298.667 298.667s-298.667-134.016-298.667-298.667v-128h-85.333v128c0 211.755 172.245 384 384 384s384-172.245 384-384v-128z" />
<glyph unicode="&#xe9c7;" d="M725.333 320h-85.333v128c0 70.571-57.429 128-128 128s-128-57.429-128-128v-128h-85.333v128c0 117.632 95.701 213.333 213.333 213.333s213.333-95.701 213.333-213.333v-128z" />
<glyph unicode="&#xe9c8;" d="M554.667 320c0 0 0 123.733 0 128 0 25.6-17.067 42.667-42.667 42.667s-42.667-17.067-42.667-42.667c0-4.267 0-128 0-128h85.333z" />
<glyph unicode="&#xe9c9;" glyph-name="duotone-star" d="M456.619 841.344c10.88 20.48 32.171 33.323 55.381 33.323s44.501-12.843 55.381-33.323l105.088-198.187c1.195-2.304 2.944-4.267 5.035-5.803s4.523-2.56 7.083-2.987l220.928-38.699c22.869-4.011 41.6-20.309 48.811-42.368 7.168-22.059 1.579-46.293-14.592-62.976l-155.989-161.195c-1.792-1.877-3.157-4.139-3.968-6.571-0.811-2.475-1.024-5.077-0.683-7.68l31.445-222.080c3.243-22.955-6.443-45.867-25.216-59.52s-43.52-15.787-64.384-5.589l-201.472 98.56c-2.304 1.152-4.864 1.749-7.467 1.749s-5.163-0.597-7.509-1.707l-201.472-98.56c-20.864-10.197-45.611-8.021-64.384 5.589-18.773 13.653-28.459 36.523-25.216 59.52l31.445 222.080c0.384 2.56 0.128 5.205-0.683 7.68s-2.133 4.736-3.968 6.571l-155.989 161.195c-16.128 16.683-21.76 40.917-14.592 62.976s25.941 38.357 48.811 42.368l220.928 38.699c2.56 0.469 4.992 1.493 7.083 2.987 2.091 1.536 3.84 3.499 5.035 5.803l105.131 198.144z" />
<glyph unicode="&#xe9ca;" glyph-name="star" d="M512.208 853.333c-0.059 0-0.13 0.001-0.2 0.001-12.465 0-23.265-7.126-28.55-17.527l-0.084-0.182-109.917-219.833-261-40.167c-15.448-2.453-27.116-15.678-27.116-31.628 0-8.834 3.579-16.831 9.366-22.622l180.541-180.541-40.208-261.292c-0.237-1.463-0.372-3.149-0.372-4.867 0-17.675 14.328-32.003 32.003-32.003 5.404 0 10.495 1.339 14.959 3.704l-0.174-0.084 230.542 120.292 230.542-120.292c4.291-2.281 9.382-3.62 14.786-3.62 17.675 0 32.003 14.328 32.003 32.003 0 1.718-0.135 3.404-0.396 5.049l0.024-0.182-40.208 261.292 180.542 180.542c5.787 5.791 9.366 13.788 9.366 22.622 0 15.95-11.668 29.174-26.934 31.604l-0.182 0.024-261 40.167-109.917 219.833c-5.336 10.519-16.037 17.622-28.405 17.708h-0.012z" />
<glyph unicode="&#xe9cb;" d="M768 277.333h-512c-70.699 0-128 57.301-128 128v298.667c0 70.699 57.301 128 128 128h512c70.699 0 128-57.301 128-128v-298.667c0-70.699-57.301-128-128-128z" />
<glyph unicode="&#xe9cc;" d="M384 768c0-58.91-47.756-106.667-106.667-106.667s-106.667 47.756-106.667 106.667c0 58.91 47.756 106.667 106.667 106.667s106.667-47.756 106.667-106.667z" />
<glyph unicode="&#xe9cd;" d="M594.304 618.667h-380.971c-47.147 0-85.333-38.187-85.333-85.333v-464.64c0-23.381 16.811-44.587 40.107-47.061 25.045-2.688 46.976 15.36 49.707 39.808l22.443 201.813c0.853 7.979 7.637 14.080 15.744 14.080v0c8.107 0 14.891-6.101 15.787-14.123l22.187-199.765c2.475-22.187 19.968-40.704 42.24-42.027 26.155-1.536 47.787 19.157 47.787 44.928v411.136c0 11.051 8.149 20.437 19.072 22.016l195.584 27.947c22.101 3.157 40.192 20.992 41.259 43.264 1.28 26.283-19.627 47.957-45.611 47.957z" />
<glyph unicode="&#xe9ce;" d="M582.528 277.333l72.064-216.235c7.936-23.765 30.165-39.765 55.211-39.765v0c39.68 0 67.755 38.912 55.168 76.544l-59.819 179.456h-122.624z" />
<glyph unicode="&#xe9cf;" glyph-name="trash-can" d="M512 874.667c-70.312 0-128-57.688-128-128h-224c-0.135 0.002-0.293 0.003-0.453 0.003-17.675 0-32.003-14.328-32.003-32.003s14.328-32.003 32.003-32.003c0.159 0 0.318 0.001 0.477 0.003h53.309v-544c0-64.704 52.629-117.333 117.333-117.333h362.667c64.704 0 117.333 52.629 117.333 117.333v544h53.333c0.135-0.002 0.293-0.003 0.453-0.003 17.675 0 32.003 14.328 32.003 32.003s-14.328 32.003-32.003 32.003c-0.159 0-0.318-0.001-0.477-0.003h-223.976c0 70.312-57.688 128-128 128zM512 810.667c35.715 0 64-28.285 64-64h-128c0 35.715 28.285 64 64 64zM416 576c17.664 0 32-14.336 32-32v-320c0-17.664-14.336-32-32-32s-32 14.336-32 32v320c0 17.664 14.336 32 32 32zM608 576c17.664 0 32-14.336 32-32v-320c0-17.664-14.336-32-32-32s-32 14.336-32 32v320c0 17.664 14.336 32 32 32z" />
<glyph unicode="&#xe9d0;" glyph-name="u-turn-to-left" d="M353.835 332.501c8.341-8.341 19.243-12.501 30.165-12.501s21.824 4.16 30.165 12.501c16.661 16.661 16.661 43.669 0 60.331l-140.501 140.501h345.003c105.877 0 192-86.123 192-192s-86.123-192-192-192h-170.667c-23.552 0-42.667-19.115-42.667-42.667s19.115-42.667 42.667-42.667h170.667c152.917 0 277.333 124.416 277.333 277.333s-124.416 277.333-277.333 277.333h-345.003l140.501 140.501c16.661 16.661 16.661 43.669 0 60.331s-43.669 16.661-60.331 0l-213.333-213.333c-16.661-16.661-16.661-43.669 0-60.331l213.333-213.333z" />
<glyph unicode="&#xe9d1;" d="M725.333 661.333c0-117.821-95.513-213.333-213.333-213.333s-213.333 95.513-213.333 213.333c0 117.821 95.513 213.333 213.333 213.333s213.333-95.513 213.333-213.333z" />
<glyph unicode="&#xe9d2;" glyph-name="user" d="M512 874.667c-117.821 0-213.333-95.513-213.333-213.333s95.513-213.333 213.333-213.333v0c117.821 0 213.333 95.513 213.333 213.333s-95.513 213.333-213.333 213.333v0zM768.448 362.667h-512.896c-46.805 0-84.885-38.080-84.885-84.885v-32.448c0-70.656 40.213-131.755 113.216-172.011 60.736-33.536 141.76-51.989 228.117-51.989 164.395 0 341.333 70.101 341.333 224v32.448c0 46.805-38.080 84.885-84.885 84.885z" />
<glyph unicode="&#xe9d3;" d="M965.12 409.173l-70.4 212.48c0.853 5.973 1.28 12.373 1.28 18.347 0 82.347-66.987 149.333-149.333 149.333h-33.28c-20.48 0-40.107 4.693-58.027 13.653l-30.72 15.36c-17.92 8.96-37.547 13.653-58.027 13.653h-109.227c-20.48 0-40.107-4.693-58.027-13.653l-30.72-15.36c-17.92-8.96-37.547-13.653-58.027-13.653h-33.28c-82.347 0-149.333-66.987-149.333-149.333 0-5.973 0.427-12.373 1.28-18.347l-70.4-212.48c-8.96-27.733 1.28-57.6 25.6-73.387 0 0 23.040-15.36 45.227-29.44 21.76-14.080 50.773-5.973 61.867 17.067l67.371 139.349 35.925-360.363c2.133-21.803 20.48-38.4 42.411-38.4h349.397c21.931 0 40.277 16.597 42.453 38.443l35.925 360.363 67.371-139.349c11.093-23.040 40.107-31.147 61.867-17.067 22.187 14.080 45.227 29.44 45.227 29.44 24.32 15.744 34.56 45.611 25.6 73.344z" />
<glyph unicode="&#xe9d4;" glyph-name="view-column" d="M320 810.667h-138.667c-52.928 0-96-43.072-96-96v-533.333c0-52.928 43.072-96 96-96h138.667v725.333zM384 810.667h256v-725.333h-256zM842.667 810.667h-138.667v-725.333h138.667c52.928 0 96 43.072 96 96v533.333c0 52.928-43.072 96-96 96z" />
<glyph unicode="&#xe9d5;" glyph-name="view-stream" d="M938.667 480v234.667c0 52.928-43.072 96-96 96h-661.333c-52.928 0-96-43.072-96-96v-234.667h853.333zM85.333 416v-234.667c0-52.928 43.072-96 96-96h661.333c52.928 0 96 43.072 96 96v234.667h-853.333z" />
<glyph unicode="&#xe9d6;" d="M512 746.667c-23.552 0-42.667 19.115-42.667 42.667s19.115 42.667 42.667 42.667 42.667-19.115 42.667-42.667-19.115-42.667-42.667-42.667h120.149c4.779 13.397 7.851 27.648 7.851 42.667 0 70.571-57.429 128-128 128s-128-57.429-128-128c0-15.019 3.072-29.269 7.851-42.667h120.149z" />
<glyph unicode="&#xe9d7;" d="M937.984 182.699l-53.333 469.333c-6.101 53.888-51.755 94.635-105.984 94.635h-533.333c-54.229 0-99.883-40.747-105.984-94.635l-53.333-469.333c-3.413-30.208 6.229-60.416 26.411-83.072 20.224-22.656 49.195-35.627 79.573-35.627h640c30.379 0 59.349 12.971 79.573 35.627s29.824 52.907 26.411 83.072z" />
<glyph unicode="&#xe9d8;" d="M597.333 618.667c0-47.128-38.205-85.333-85.333-85.333s-85.333 38.205-85.333 85.333c0 47.128 38.205 85.333 85.333 85.333s85.333-38.205 85.333-85.333z" />
<glyph unicode="&#xe9d9;" d="M597.333 405.333h-170.667c-11.307 0-22.187 4.48-30.165 12.501l-90.496 90.496c-32.256 32.213-50.005 75.093-50.005 120.704v117.632c0 23.552 19.115 42.667 42.667 42.667s42.667-19.115 42.667-42.667v-117.632c0-22.784 8.875-44.245 25.003-60.373l77.995-77.995h135.339l77.995 77.995c16.128 16.128 25.003 37.547 25.003 60.373v117.632c0 23.552 19.115 42.667 42.667 42.667s42.667-19.115 42.667-42.667v-117.632c0-45.568-17.749-88.448-50.005-120.704l-90.496-90.496c-7.979-8.021-18.859-12.501-30.165-12.501z" />
<glyph unicode="&#xe9da;" d="M213.333 21.333c-17.877 0-34.517 11.307-40.491 29.184-7.467 22.357 4.608 46.507 26.965 53.973l94.891 31.616c11.691 3.883 21.632 11.861 27.989 22.443l84.437 140.757c5.376 8.96 13.867 15.659 23.851 18.773l136.533 42.667c11.435 3.541 23.979 2.176 34.347-3.968l130.005-76.459c22.315-13.099 36.139-37.291 36.139-63.147v-153.173c0-23.552-19.115-42.667-42.667-42.667s-42.667 19.115-42.667 42.667v146.261l-107.733 63.36-102.997-32.171-76.075-126.805c-16.811-28.032-43.136-49.152-74.155-59.52l-94.891-31.616c-4.48-1.493-9.045-2.176-13.483-2.176z" />
<glyph unicode="&#xe9db;" d="M384 490.667v-170.667l-80.256-196.096 73.813-32.683 108.8 116.096c15.957 17.024 39.552 24.576 62.421 20.011l176.555-35.328-85.333 85.333v192l-256 21.333z" />
<glyph unicode="&#xe9dc;" d="M938.667 576h-42.667c-23.552 0-42.667 19.115-42.667 42.667v256c0 23.552 19.115 42.667 42.667 42.667h42.667c23.552 0 42.667-19.115 42.667-42.667v-256c0-23.552-19.115-42.667-42.667-42.667z" />
<glyph unicode="&#xe9dd;" d="M128 576h-42.667c-23.552 0-42.667 19.115-42.667 42.667v256c0 23.552 19.115 42.667 42.667 42.667h42.667c23.552 0 42.667-19.115 42.667-42.667v-256c0-23.552-19.115-42.667-42.667-42.667z" />
<glyph unicode="&#xe9de;" d="M170.667 789.333h682.667v-85.333h-682.667v85.333z" />
<glyph unicode="&#xe9df;" d="M736.384 678.059c-6.699 15.744-22.144 25.941-39.253 25.941h-57.131c-51.2 0-96.853-23.040-128-58.88-31.147 35.84-76.8 58.88-128 58.88h-57.131c-17.109 0-32.555-10.197-39.253-25.941l-62.037-145.664c-4.907-11.52-4.523-24.619 1.109-35.797l10.24-20.523c21.675-43.349 66.005-70.741 114.475-70.741h78.379c32.725 0 62.251 15.104 82.219 39.765 19.968-24.661 49.493-39.765 82.219-39.765h78.379c48.469 0 92.8 27.392 114.475 70.741l10.24 20.523c5.589 11.179 6.016 24.277 1.109 35.797l-62.037 145.664z" />
<glyph unicode="&#xe9e0;" d="M853.333 512c0-58.91-47.756-106.667-106.667-106.667s-106.667 47.756-106.667 106.667c0 58.91 47.756 106.667 106.667 106.667s106.667-47.756 106.667-106.667z" />
<glyph unicode="&#xe9e1;" d="M341.333 810.709c0-58.923 47.744-106.709 106.624-106.709 59.008 0 106.709 47.787 106.709 106.709 0 58.837-47.701 106.624-106.709 106.624-58.88 0-106.624-47.787-106.624-106.624z" />
<glyph unicode="&#xe9e2;" d="M298.667 554.709c0-58.923 47.744-106.709 106.624-106.709 59.008 0 106.709 47.787 106.709 106.709 0 58.837-47.701 106.624-106.709 106.624-58.88 0-106.624-47.787-106.624-106.624z" />
<glyph unicode="&#xe9e3;" d="M575.232 491.819l-50.261-10.624-102.485 120.235 73.301 9.813z" />
<glyph unicode="&#xe9e4;" d="M298.667 554.709h213.333v-170.667h-213.333v170.667z" />
<glyph unicode="&#xe9e5;" d="M667.733 440.747l-99.413-33.28c-4.693-1.28-8.96-2.133-13.653-2.133-13.227 0-26.027 5.973-34.133 17.067l-114.347 152.32c-14.080 18.773-10.24 45.653 8.533 59.733s45.653 10.24 59.733-8.533l96-127.573 69.973 23.467c-0.427-3.413-0.427-6.4-0.427-9.813 0-27.307 10.24-52.48 27.733-71.253z" />
<glyph unicode="&#xe9e6;" d="M512 384.043c0 58.837-47.701 106.624-106.709 106.624-39.552 0-73.643-21.803-92.075-53.76-8.789-7.808-14.549-18.901-14.549-31.573v-206.421l-40.491-121.429c-7.467-22.357 4.608-46.549 26.965-53.973 4.523-1.451 9.088-2.176 13.525-2.176 17.877 0 34.517 11.307 40.491 29.184l40.96 122.88 34.859 90.624c2.219 5.76 10.24 6.144 13.013 0.64l41.344-82.731v-117.931c0-23.595 19.115-42.667 42.667-42.667s42.667 19.072 42.667 42.667v118.656c0 6.229-0.683 12.416-2.048 18.517l-40.619 182.869z" />
<glyph unicode="&#xe9e7;" d="M789.333 512c0-23.564-19.103-42.667-42.667-42.667s-42.667 19.103-42.667 42.667c0 23.564 19.103 42.667 42.667 42.667s42.667-19.103 42.667-42.667z" />
<glyph unicode="&#xe9e8;" d="M213.333 320h597.333v-85.333h-597.333v85.333z" />
<glyph unicode="&#xe9e9;" d="M618.667 810.667c0-58.91-47.756-106.667-106.667-106.667s-106.667 47.756-106.667 106.667c0 58.91 47.756 106.667 106.667 106.667s106.667-47.756 106.667-106.667z" />
<glyph unicode="&#xe9ea;" d="M682.624 234.667c-21.205 0-39.595 15.787-42.283 37.376l-28.672 229.205c-5.333 42.624-41.728 74.752-84.651 74.752h-29.995c-42.965 0-79.317-32.128-84.651-74.752l-28.672-229.205c-2.944-23.381-24.192-39.936-47.616-37.035-23.381 2.901-39.979 24.235-37.035 47.616l28.672 229.205c10.581 85.205 83.413 149.504 169.259 149.504h29.995c85.888 0 158.72-64.299 169.344-149.504l28.672-229.205c2.901-23.381-13.653-44.715-37.035-47.616-1.792-0.213-3.584-0.341-5.333-0.341z" />
<glyph unicode="&#xe9eb;" d="M896 106.667h-42.667c-23.552 0-42.667 19.115-42.667 42.667v256c0 23.552 19.115 42.667 42.667 42.667h42.667c23.552 0 42.667-19.115 42.667-42.667v-256c0-23.552-19.115-42.667-42.667-42.667z" />
<glyph unicode="&#xe9ec;" d="M938.667 149.333h-85.333v256h85.333c23.552 0 42.667-19.115 42.667-42.667v-170.667c0-23.552-19.115-42.667-42.667-42.667z" />
<glyph unicode="&#xe9ed;" d="M128 448h42.667c23.552 0 42.667-19.115 42.667-42.667v-256c0-23.552-19.115-42.667-42.667-42.667h-42.667c-23.552 0-42.667 19.115-42.667 42.667v256c0 23.552 19.115 42.667 42.667 42.667z" />
<glyph unicode="&#xe9ee;" d="M85.333 405.333h85.333v-256h-85.333c-23.552 0-42.667 19.115-42.667 42.667v170.667c0 23.552 19.115 42.667 42.667 42.667z" />
<glyph unicode="&#xe9ef;" d="M518.613 234.667l36.48-176.725c3.029-21.291 21.291-36.608 42.197-36.608 2.005 0 4.053 0.128 6.101 0.427 23.339 3.328 39.552 24.96 36.224 48.299l-8.875 164.608h-112.128z" />
<glyph unicode="&#xe9f0;" d="M391.637 234.667l-7.211-164.608c-3.328-23.339 12.885-44.971 36.224-48.299 2.005-0.299 4.053-0.427 6.059-0.427 20.907 0 39.168 15.317 42.197 36.608l36.48 176.725h-113.749z" />
<glyph unicode="&#xe9f1;" d="M640 320h-256v213.333c0 47.147 38.187 85.333 85.333 85.333h85.333c47.147 0 85.333-38.187 85.333-85.333v-213.333z" />
<glyph unicode="&#xe9f2;" d="M981.333 533.333c0-47.128-38.205-85.333-85.333-85.333s-85.333 38.205-85.333 85.333c0 47.128 38.205 85.333 85.333 85.333s85.333-38.205 85.333-85.333z" />
<glyph unicode="&#xe9f3;" d="M938.667 533.333c0-23.564-19.103-42.667-42.667-42.667s-42.667 19.103-42.667 42.667c0 23.564 19.103 42.667 42.667 42.667s42.667-19.103 42.667-42.667z" />
<glyph unicode="&#xe9f4;" d="M768 725.376c0-58.923-47.744-106.709-106.624-106.709-59.008 0-106.709 47.787-106.709 106.709 0 58.837 47.701 106.624 106.709 106.624 58.88 0 106.624-47.787 106.624-106.624z" />
<glyph unicode="&#xe9f5;" d="M170.624 21.333c-19.925 0-37.76 14.037-41.771 34.304l-42.667 213.333c-2.517 12.544 0.725 25.557 8.832 35.413 8.107 9.899 20.181 15.616 32.981 15.616h298.667c23.552 0 42.667-19.115 42.667-42.667s-64.128-42.667-64.128-42.667h-225.152l32.469-162.304c4.608-23.125-10.368-45.568-33.451-50.219-2.859-0.555-5.675-0.811-8.448-0.811z" />
<glyph unicode="&#xe9f6;" d="M121.771 320l304.896 85.333-42.667-128z" />
<glyph unicode="&#xe9f7;" d="M873.813 450.987l-75.52-75.947c-8.533-8.107-19.2-12.373-30.293-12.373-9.387 0-18.773 2.987-26.453 9.387l-213.333 170.667c-18.773 14.507-21.76 41.387-6.827 59.733l77.653-6.4 165.973-133.547 48.64 48.64c8.107-29.013 31.147-52.053 60.16-60.16z" />
<glyph unicode="&#xe9f8;" d="M640 512c0-58.91-47.756-106.667-106.667-106.667s-106.667 47.756-106.667 106.667c0 58.91 47.756 106.667 106.667 106.667s106.667-47.756 106.667-106.667z" />
<glyph unicode="&#xe9f9;" d="M512 341.333c0-58.91-47.756-106.667-106.667-106.667s-106.667 47.756-106.667 106.667c0 58.91 47.756 106.667 106.667 106.667s106.667-47.756 106.667-106.667z" />
<glyph unicode="&#xe9fa;" d="M489.301 275.584l146.603 195.541-189.397 102.869-160.768-214.4z" />
<glyph unicode="&#xe9fb;" d="M705.237 506.581c-18.859 14.165-45.611 10.283-59.733-8.533l-218.837-220.715-256-42.667c-23.552 0-42.667-19.115-42.667-42.667s19.115-42.667 42.667-42.667h128v-128h85.333v128h85.333c13.44 0 26.069 6.315 34.133 17.067l210.304 280.448c14.165 18.859 10.325 45.611-8.533 59.733z" />
<glyph unicode="&#xe9fc;" d="M755.627 364.544l-243.627 126.123h85.333l170.667-77.952z" />
<glyph unicode="&#xe9fd;" d="M234.667 618.667c-58.923 0-106.667-47.744-106.667-106.667s47.744-106.667 106.667-106.667 106.667 47.744 106.667 106.667-47.744 106.667-106.667 106.667z" />
<glyph unicode="&#xe9fe;" d="M895.957 21.333c-19.115 0-36.48 12.928-41.344 32.341l-87.595 350.421c-19.072 76.075-87.125 129.237-165.589 129.237h-132.096v85.333h132.096c117.675 0 219.776-79.744 248.363-193.92l87.595-350.421c5.717-22.827-8.192-45.995-31.061-51.712-3.456-0.853-6.912-1.28-10.368-1.28z" />
<glyph unicode="&#xe9ff;" d="M341.333 64c-3.883 0-7.851 0.555-11.733 1.621-22.656 6.485-35.755 30.123-29.312 52.736l83.712 292.949v420.693c0 23.595 19.115 42.667 42.667 42.667s42.667-19.072 42.667-42.667v-426.667c0-3.968-0.555-7.936-1.664-11.691l-85.333-298.667c-5.333-18.773-22.4-30.976-41.003-30.976z" />
<glyph unicode="&#xea00;" d="M554.667 21.333c-4.096 0-8.235 0.597-12.331 1.792-22.571 6.827-35.371 30.635-28.544 53.163l119.168 395.819c6.827 22.528 30.763 35.157 53.163 28.587 22.571-6.827 35.371-30.635 28.544-53.163l-119.168-395.819c-5.547-18.475-22.485-30.379-40.832-30.379z" />
<glyph unicode="&#xea01;" d="M856.277 48.725l-45.269 358.315c0 0-24.107 153.045-114.688 153.045-49.365 0-189.184 0-189.184 0l-37.803 271.915-43.563-377.643-44.032-360.576 116.48 313.259h34.816c24.619 0 43.051-22.571 38.101-46.72l-58.667-286.208 83.712-19.371 112.555 338.987 147.541-345.003z" />
<glyph unicode="&#xea02;" d="M588.8 253.44l15.787-61.44h-187.307l-107.093 357.973c-11.093 36.693-5.12 76.373 15.787 107.947l125.653 188.288c11.861 17.792 31.829 28.459 53.205 28.459h230.059c28.117 0 43.392-32.853 25.301-54.357l-227.712-270.336c38.827-32.853 64.853-94.293 64.853-165.973 0-24.747-2.987-48.64-8.96-70.4-5.12-19.627-4.267-40.533 0.427-60.16z" />
<glyph unicode="&#xea03;" d="M638.293 90.027c-7.68-40.96-46.507-68.693-87.893-68.693h-294.4c-23.467 0-42.667 19.2-42.667 42.667s19.2 42.667 42.667 42.667h3.84c25.173 0 50.261 6.357 71.253 21.333l86.187 64h187.307c2.987-11.093 7.253-21.76 14.933-30.293 15.787-18.773 24.32-43.947 18.773-71.68z" />
<glyph unicode="&#xea04;" d="M700.331 636.331c-33.323 33.323-87.339 33.323-120.661 0l-256-256c-33.323-33.323-33.323-87.339 0-120.661s87.339-33.323 120.661 0l256 256c33.323 33.323 33.323 87.339 0 120.661z" />
<glyph unicode="&#xea05;" d="M869.931 805.931c-91.648 91.648-240.213 91.648-331.861 0-7.296-7.296-35.371-35.371-42.667-42.667-66.048-66.048-83.755-161.536-54.571-244.139-82.603 29.184-178.048 11.52-244.096-54.528-7.296-7.296-35.371-35.371-42.667-42.667-91.648-91.648-91.648-240.213 0-331.861s240.213-91.648 331.861 0c7.296 7.296 35.371 35.371 42.667 42.667 66.048 66.048 83.755 161.536 54.571 244.139 82.603-29.184 178.048-11.52 244.096 54.528 7.296 7.296 35.371 35.371 42.667 42.667 91.648 91.648 91.648 240.213 0 331.861z" />
<glyph unicode="&#xea06;" d="M640 589.525v71.808c0 23.552-19.115 42.667-42.667 42.667h-170.667c-23.552 0-42.667-19.115-42.667-42.667v-71.808c-100.821-47.957-170.667-150.443-170.667-269.525 0-164.949 133.717-298.667 298.667-298.667s298.667 133.717 298.667 298.667c0 119.083-69.845 221.568-170.667 269.525z" />
<glyph unicode="&#xea07;" d="M496.384 187.179v213.803l-20.309-15.317c-16.341-12.331-39.765-7.509-49.92 10.24v0c-8.576 15.019-4.523 34.048 9.429 44.245l55.595 40.704c8.704 6.4 19.243 9.813 30.037 9.813v0c28.117 0 50.859-22.784 50.859-50.859v-252.587c0-20.907-16.939-37.845-37.845-37.845v0c-20.907-0.043-37.845 16.896-37.845 37.803z" />
<glyph unicode="&#xea08;" d="M426.667 618.667h170.667l213.333 256h-170.667z" />
<glyph unicode="&#xea09;" d="M384 661.333c0 23.552 19.115 42.667 42.667 42.667h42.667l-128 170.667h-170.667l213.333-277.504v64.171z" />
<glyph unicode="&#xea0a;" d="M255.232 579.157c12.373 10.965 15.957-3.157 43.435-3.157s85.333 41.984 85.333 128c0 58.411-121.301 85.333-153.429 85.333-32.085 0-63.232-24.832-98.304-55.467-35.029-30.635-46.933-74.88-46.933-162.133 0-13.184 0.299-25.813 0.683-38.4h164.011c-5.589 19.285-3.755 37.845 5.205 45.824z" />
<glyph unicode="&#xea0b;" d="M298.667 106.667c36.608 0 66.901 8.448 85.333 8.448 18.773 0 62.891-8.448 140.8-8.448 231.808 0 255.915 209.92 271.616 225.621s142.251 39.509 142.251 226.176c0 88.747-76.203 188.203-189.995 188.203-80.768 0-122.027-30.251-147.627-70.4-50.645-79.317-28.757-129.195-40.576-144.469-11.819-15.232-69.205 7.296-127.573-40.107-72.619-58.965-44.203-81.451-65.92-81.451s-18.987 29.483-87.253 79.317c-15.573 11.392-25.131 27.819-29.696 43.776h-164.011c3.371-112.981 23.125-203.051 87.339-315.136 46.037-80.341 105.216-111.531 125.312-111.531z" />
<glyph unicode="&#xea0c;" d="M256 277.333v-192c0-35.328 28.672-64 64-64h384c35.328 0 64 28.672 64 64v192c0 94.251-76.416 170.667-170.667 170.667h-170.667c-94.251 0-170.667-76.416-170.667-170.667z" />
<glyph unicode="&#xea0d;" d="M682.667 704c0-94.257-76.41-170.667-170.667-170.667s-170.667 76.41-170.667 170.667c0 94.257 76.41 170.667 170.667 170.667s170.667-76.41 170.667-170.667z" />
<glyph unicode="&#xea0e;" d="M512 274.389l105.6 171.563c-6.741 0.811-13.312 2.048-20.267 2.048h-170.667c-6.955 0-13.525-1.237-20.267-2.048l105.6-171.563z" />
<glyph unicode="&#xea0f;" d="M680.192 425.685l-125.525-203.819c0 0 0-43.691 0-51.2 0-35.328-28.672-64-64-64s-64 28.672-64 64c0 7.509 0 35.157 0 42.667 0 18.048 7.509 34.261 19.541 45.909l-102.4 166.443c-52.181-29.227-87.808-84.352-87.808-148.352v-192c0-35.328 28.672-64 64-64h384c35.328 0 64 28.672 64 64v192c0 64-35.669 119.125-87.808 148.352z" />
<glyph unicode="&#xea10;" d="M965.12 409.173l-70.4 212.48c0.853 5.973 1.28 12.373 1.28 18.347 0 82.347-66.987 149.333-149.333 149.333h-33.28c-20.48 0-40.107 4.693-58.027 13.653l-30.72 15.36c-17.92 8.96-37.547 13.653-58.027 13.653h-109.227c-20.48 0-40.107-4.693-58.027-13.653l-30.72-15.36c-17.92-8.96-37.547-13.653-58.027-13.653h-33.28c-82.347 0-149.333-66.987-149.333-149.333 0-5.973 0.427-12.373 1.28-18.347l-70.4-212.48c-8.96-27.733 1.28-57.6 25.6-73.387 0 0 23.040-15.36 45.227-29.44 21.76-14.080 50.773-5.973 61.867 17.067l67.371 139.349 35.925-360.363c2.133-21.803 20.48-38.4 42.411-38.4h349.397c21.931 0 40.277 16.597 42.453 38.443l35.925 360.363 67.371-139.349c11.093-23.040 40.107-31.147 61.867-17.067 22.187 14.080 45.227 29.44 45.227 29.44 24.32 15.744 34.56 45.611 25.6 73.344z" />
<glyph unicode="&#xea11;" d="M469.333 416v-21.333c0-17.664-14.763-32-32.939-32h-37.547c-29.397 0-54.059 21.461-57.259 49.835v0c-2.219 18.944 13.056 35.499 32.683 35.499h62.080c18.219 0 32.981-14.336 32.981-32z" />
<glyph unicode="&#xea12;" d="M391.296 320h46.037c17.664 0 32-14.336 32-32v-21.333c0-17.664-14.336-32-32-32h-22.229c-28.416 0-52.352 21.333-55.595 49.579v0.128c-2.176 18.987 12.672 35.627 31.787 35.627z" />
<glyph unicode="&#xea13;" d="M432.384 192h4.949c17.664 0 32-14.336 32-32v-96h-85.333l-7.253 65.92c-3.627 33.152 22.315 62.080 55.637 62.080z" />
<glyph unicode="&#xea14;" d="M586.667 192h4.949c33.323 0 59.264-28.928 55.637-62.080l-7.253-65.92h-85.333v96c0 17.664 14.336 32 32 32z" />
<glyph unicode="&#xea15;" d="M586.667 320h46.037c19.115 0 33.963-16.64 31.787-35.669v-0.128c-3.285-28.203-27.179-49.536-55.595-49.536h-22.229c-17.664 0-32 14.336-32 32v21.333c0 17.664 14.336 32 32 32z" />
<glyph unicode="&#xea16;" d="M682.453 412.501v0c-3.2-28.373-27.861-49.835-57.259-49.835h-37.547c-18.219 0-32.981 14.336-32.981 32v21.333c0 17.664 14.763 32 32.939 32h62.080c19.669 0 34.944-16.555 32.768-35.499z" />
<glyph unicode="&#xea17;" d="M403.243 482.048c-8.576 40.661-48.469 66.731-89.173 58.155s-58.069-84.437-58.069-84.437l24.235-119.723-97.067-113.877c-13.44-15.701-13.824-39.296 0-55.552 15.317-18.005 42.368-20.139 60.331-4.821l138.197 117.803c9.173 7.893 15.36 19.499 15.957 32.555l0.597 12.416 6.528 138.411c0.213 6.144-0.256 12.8-1.536 19.072z" />
<glyph unicode="&#xea18;" d="M919.595 153.856l-360.405 132.523c-44.501 16.384-67.328 65.707-50.944 110.208s65.707 67.328 110.208 50.944c5.973-2.176 11.904-5.248 17.067-8.533l322.261-208.811c19.883-12.885 25.557-39.467 12.672-59.392-11.136-17.152-32.469-23.723-50.859-16.939z" />
<glyph unicode="&#xea19;" d="M981.333 64h-938.667c-23.552 0-42.667 19.115-42.667 42.667v0c0 23.552 19.115 42.667 42.667 42.667h938.667c23.552 0 42.667-19.115 42.667-42.667v0c0-23.552-19.115-42.667-42.667-42.667z" />
<glyph unicode="&#xea1a;" d="M468.011 472.619c0-58.91-47.756-106.667-106.667-106.667s-106.667 47.756-106.667 106.667c0 58.91 47.756 106.667 106.667 106.667s106.667-47.756 106.667-106.667z" />
<glyph unicode="&#xea1b;" d="M638.421 484.395l-240.256 88.32-73.643-200.235 240.256-88.32 73.643 200.235z" />
<glyph unicode="&#xea1c;" d="M708.267 384.256c0-58.91-47.756-106.667-106.667-106.667s-106.667 47.756-106.667 106.667c0 58.91 47.756 106.667 106.667 106.667s106.667-47.756 106.667-106.667z" />
<glyph unicode="&#xea1d;" d="M256 597.333c0-58.91-47.756-106.667-106.667-106.667s-106.667 47.756-106.667 106.667c0 58.91 47.756 106.667 106.667 106.667s106.667-47.756 106.667-106.667z" />
<glyph unicode="&#xea1e;" d="M672.597 405.333h-78.379c-40.704 0-77.269 22.613-95.403 58.965l-24.96 49.92c-10.539 21.077-2.005 46.72 19.072 57.259 21.12 10.581 46.72 1.963 57.259-19.072l24.96-49.963c3.627-7.253 10.923-11.776 19.072-11.776h78.379c16.256 0 30.891 9.045 38.144 23.595l19.072 38.187c10.539 21.077 36.139 29.653 57.259 19.072 21.077-10.539 29.611-36.181 19.072-57.259l-19.072-38.187c-21.803-43.648-65.707-70.741-114.475-70.741z" />
<glyph unicode="&#xea1f;" d="M429.781 405.333h-78.379c-48.768 0-92.629 27.093-114.475 70.741l-19.072 38.187c-10.581 21.077-2.005 46.677 19.072 57.259 21.12 10.581 46.72 1.963 57.259-19.072l19.072-38.187c7.253-14.549 21.888-23.595 38.144-23.595h78.379c8.149 0 15.445 4.523 19.072 11.776l24.96 49.963c10.539 21.077 36.096 29.653 57.259 19.072 21.077-10.539 29.611-36.181 19.072-57.259l-24.96-49.963c-18.176-36.309-54.741-58.923-95.403-58.923z" />
<glyph unicode="&#xea20;" d="M965.12 409.173l-70.4 212.48c0.853 5.973 1.28 12.373 1.28 18.347 0 82.347-66.987 149.333-149.333 149.333h-33.28c-20.48 0-40.107 4.693-58.027 13.653l-30.72 15.36c-17.92 8.96-37.547 13.653-58.027 13.653h-109.227c-20.48 0-40.107-4.693-58.027-13.653l-30.72-15.36c-17.92-8.96-37.547-13.653-58.027-13.653h-33.28c-82.347 0-149.333-66.987-149.333-149.333 0-5.973 0.427-12.373 1.28-18.347l-70.4-212.48c-8.96-27.733 1.28-57.6 25.6-73.387 0 0 23.040-15.36 45.227-29.44 21.76-14.080 50.773-5.973 61.867 17.067l67.371 139.349 35.925-360.363c2.133-21.803 20.48-38.4 42.411-38.4h349.397c21.931 0 40.277 16.597 42.453 38.443l35.925 360.363 67.371-139.349c11.093-23.040 40.107-31.147 61.867-17.067 22.187 14.080 45.227 29.44 45.227 29.44 24.32 15.744 34.56 45.611 25.6 73.344z" />
<glyph unicode="&#xea21;" d="M875.947 859.221l-0.043-0.085c-9.429 9.984-95.36-184.619-464.555-399.445 15.019-61.269-198.016-310.357-198.016-310.357 1.493-106.197 70.272-128 94.251-128 43.435 0 93.44 41.643 162.901 112.853s57.472 108.885 98.901 145.707 82.475 16.853 214.997 130.005c108.373 92.501 154.283 191.232 154.283 309.632 0 97.28-62.72 139.691-62.72 139.691z" />
<glyph unicode="&#xea22;" d="M875.947 859.221l-0.043-0.085c-9.429 9.984-21.077 15.531-34.176 15.531-74.667 0-70.4-51.712-237.44-91.691-170.667-40.832-278.528 34.304-324.053-12.075-32.469-33.109 18.432-91.904 18.432-152.235 0-186.325-213.333-81.152-213.333-187.349 0-60.288 42.667-77.525 42.667-111.317 0-124.117 85.333-170.667 85.333-170.667 182.272 47.317 182.443 154.667 260.139 220.843 77.995 66.389 387.584 102.144 427.648 464.128-13.397 16.939-25.173 24.917-25.173 24.917z" />
<glyph unicode="&#xea23;" d="M748.672 746.667c-80.768 0-122.027-30.251-147.627-70.4-50.645-79.317-28.757-129.195-40.576-144.469-11.819-15.232-69.205 7.296-127.573-40.107-72.619-58.965-44.203-81.451-65.92-81.451s-18.987 29.483-87.253 79.317c-15.573 11.392-25.131 27.819-29.696 43.776-5.589 19.285-3.755 37.845 5.205 45.824 12.373 10.965 15.957-3.157 43.435-3.157s85.333 41.984 85.333 128c0 58.411-121.301 85.333-153.429 85.333-32.085 0-63.232-24.832-98.304-55.467-35.029-30.635-46.933-74.88-46.933-162.133 0-13.184 0.299-25.813 0.683-38.4 3.371-112.981 23.125-203.051 87.339-315.136 46.037-80.341 105.216-111.531 125.312-111.531 36.608 0 66.901 8.448 85.333 8.448 18.773 0 62.891-8.448 140.8-8.448 231.808 0 255.915 209.92 271.616 225.621s142.251 39.509 142.251 226.176c0 88.747-76.203 188.203-189.995 188.203z" />
<glyph unicode="&#xea24;" d="M796.587 332.373c-15.787-15.787-40.107-225.707-271.787-225.707-78.080 0-122.027 8.533-140.8 8.533l21.461 81.621c12.501 47.445 55.381 80.512 104.448 80.512v0c28.629 0 56.107 11.392 76.373 31.616v0c33.579 33.579 81.621 48.299 128.256 39.296l82.048-15.872z" />
<glyph unicode="&#xea25;" d="M426.667 810.709c0-58.923 47.744-106.709 106.624-106.709 59.008 0 106.709 47.787 106.709 106.709 0 58.837-47.701 106.624-106.709 106.624-58.88 0-106.624-47.787-106.624-106.624z" />
<glyph unicode="&#xea26;" d="M384 554.709c0-58.923 47.744-106.709 106.624-106.709 59.008 0 106.709 47.787 106.709 106.709 0 58.837-47.701 106.624-106.709 106.624-58.88 0-106.624-47.787-106.624-106.624z" />
<glyph unicode="&#xea27;" d="M341.333 384.043c0-58.923 47.744-106.709 106.624-106.709 59.008 0 106.709 47.787 106.709 106.709 0 58.837-47.701 106.624-106.709 106.624-58.88 0-106.624-47.787-106.624-106.624z" />
<glyph unicode="&#xea28;" d="M768 362.667c-4.437 0-9.003 0.725-13.483 2.219l-128 42.667c-6.272 2.091-11.989 5.632-16.683 10.325l-128 128c-16.683 16.683-16.683 43.648 0 60.331s43.648 16.683 60.331 0l120.875-120.875 118.443-39.467c22.357-7.467 34.432-31.616 26.965-53.973-5.931-17.92-22.571-29.227-40.448-29.227z" />
<glyph unicode="&#xea29;" d="M256 21.333c-9.387 0-18.859 3.072-26.752 9.429-18.347 14.805-21.248 41.643-6.443 59.989l113.664 141.056 55.083 140.075c8.619 21.888 33.323 32.768 55.339 24.064 21.931-8.619 32.725-33.408 24.064-55.339l-57.515-146.091c-1.579-4.011-3.755-7.765-6.485-11.136l-117.717-146.133c-8.448-10.496-20.779-15.915-33.237-15.915z" />
<glyph unicode="&#xea2a;" d="M640 21.333c-18.432 0-35.456 12.032-40.917 30.635l-46.848 159.104-121.216 151.040c-14.763 18.389-11.819 45.227 6.571 59.989 18.347 14.763 45.227 11.861 59.989-6.571l126.507-157.568c3.499-4.352 6.101-9.301 7.68-14.635l49.237-167.168c6.656-22.613-6.272-46.336-28.885-52.992-4.096-1.28-8.149-1.835-12.117-1.835z" />
<glyph unicode="&#xea2b;" d="M213.333 405.333c-9.643 0-19.328 3.243-27.307 9.899-18.091 15.104-20.523 41.984-5.461 60.075l106.667 128c5.717 6.869 13.397 11.733 22.059 13.995l159.36 41.387c22.912 5.973 46.123-7.765 52.011-30.549 5.931-22.827-7.765-46.123-30.549-52.011l-146.133-37.973-97.877-117.461c-8.448-10.112-20.565-15.36-32.768-15.36z" />
<glyph unicode="&#xea2c;" d="M218.155 83.669l100.181 155.392 23.68 153.259 76.501 13.013-42.965-186.24z" />
<glyph unicode="&#xea2d;" d="M293.931 511.317l203.861 36.224-20.565 68.096-170.197-51.413z" />
<glyph unicode="&#xea2e;" d="M682.496 473.387l-76.544-31.531-102.443 120.277 76.501 50.688z" />
<glyph unicode="&#xea2f;" d="M458.539 374.144l-52.096-88.405 133.675-79.659 57.216-142.080v173.013z" />
<glyph unicode="&#xea30;" d="M386.966 579.432l206.96-51.755-42.449-169.749-206.96 51.755 42.449 169.749z" />
<glyph unicode="&#xea31;" d="M810.667 106.667h-7.851c-17.621 49.621-64.512 85.333-120.149 85.333s-102.528-35.712-120.149-85.333h-7.851c-23.552 0-42.667-19.072-42.667-42.667s19.115-42.667 42.667-42.667h256c23.552 0 42.667 19.072 42.667 42.667s-19.115 42.667-42.667 42.667z" />
<glyph unicode="&#xea32;" d="M298.667 810.709c0-58.923 47.744-106.709 106.624-106.709 59.008 0 106.709 47.787 106.709 106.709 0 58.837-47.701 106.624-106.709 106.624-58.88 0-106.624-47.787-106.624-106.624z" />
<glyph unicode="&#xea33;" d="M298.667 554.709c0-58.923 47.744-106.709 106.624-106.709 59.008 0 106.709 47.787 106.709 106.709 0 58.837-47.701 106.624-106.709 106.624-58.88 0-106.624-47.787-106.624-106.624z" />
<glyph unicode="&#xea34;" d="M298.667 384.043c0-58.923 47.744-106.709 106.624-106.709 59.008 0 106.709 47.787 106.709 106.709 0 58.837-47.701 106.624-106.709 106.624-58.88 0-106.624-47.787-106.624-106.624z" />
<glyph unicode="&#xea35;" d="M512 373.845l-213.333 10.197v170.667h213.333z" />
<glyph unicode="&#xea36;" d="M213.376 21.333c-13.781 0-27.307 6.656-35.541 18.987-13.056 19.627-7.765 46.080 11.819 59.179l114.261 76.16 38.656 154.667c5.717 22.912 28.885 36.651 51.755 31.061 22.869-5.717 36.736-28.885 31.061-51.712l-42.667-170.667c-2.603-10.283-8.875-19.285-17.749-25.173l-128-85.333c-7.253-4.821-15.488-7.168-23.595-7.168z" />
<glyph unicode="&#xea37;" d="M436.395 557.056c-22.272 0-41.045 17.28-42.539 39.893-1.536 23.509 16.256 43.819 39.808 45.355l288.896 18.944c22.997 1.067 43.819-16.256 45.355-39.808 1.536-23.509-16.256-43.819-39.808-45.355l-288.896-18.944c-0.939-0.043-1.877-0.085-2.816-0.085z" />
<glyph unicode="&#xea38;" d="M341.333 405.333l-42.667-21.291v-192.043l-112.512-95.403 24.704-31.957 130.475 102.528 32.683 178.091z" />
<glyph unicode="&#xea39;" d="M341.333 234.667l227.883 75.947 77.781-97.323-64.427 149.376-177.237-8.064z" />
<glyph unicode="&#xea3a;" d="M725.333 661.333h-320.043l4.949-56.875 224.469 6.784z" />
<glyph unicode="&#xea3b;" d="M682.709 192c-13.781 0-27.307 6.656-35.541 18.987l-71.125 106.667-102.485-10.24c-23.765-2.048-44.331 14.805-46.72 38.229-2.347 23.467 14.763 44.373 38.229 46.72l128 12.8c16.171 1.28 31.019-5.675 39.765-18.773l85.333-128c13.056-19.627 7.765-46.080-11.819-59.179-7.296-4.864-15.531-7.211-23.637-7.211z" />
<glyph unicode="&#xea3c;" d="M341.333 576c0 0 85.333-42.667 170.667-42.667s213.333 85.333 213.333 85.333l-128-298.667 85.333-256h-298.667c0 0 42.667 213.333 42.667 256s-85.333 256-85.333 256z" />
<glyph unicode="&#xea3d;" d="M721.536 105.728c-7.467 43.819-25.045 84.779-42.411 124.629-13.568 31.189-26.112 61.141-33.195 90.368 1.493 2.133 2.859 4.181 4.395 6.4 49.664 71.637 117.675 169.813 117.675 419.541 0 23.595-19.115 42.667-42.667 42.667s-42.667-19.072-42.667-42.667c0-94.123-76.544-170.667-170.667-170.667s-170.667 76.544-170.667 170.667c0 23.595-19.115 42.667-42.667 42.667s-42.667-19.072-42.667-42.667c0-176.896 51.541-263.68 89.173-326.997 22.272-37.504 38.357-64.597 38.827-100.224 0.597-46.677-10.581-79.232-23.467-116.949-9.685-28.245-20.267-59.307-25.045-97.024-20.693-2.944-36.821-19.968-36.821-41.472 0-23.595 19.115-42.667 42.667-42.667h375.467c23.552 0 42.667 19.072 42.667 42.667 0 21.888-16.725 39.253-37.931 41.728zM421.845 106.667c-0.597 32.043 47.488 152.448 47.488 213.888 0 89.984-76.672 169.515-84.267 204.117 37.461-21.504 80.725-34.005 126.933-34.005 55.083 0 106.027 17.664 147.84 47.36-15.104-117.12-147.84-215.339-147.84-346.027 0-23.595 19.115-42.667 42.667-42.667s42.667 19.072 42.667 42.667c0 4.011 0.341 7.637 0.555 11.435 1.024-2.347 23.381-44.245 36.523-96.768h-212.565z" />
<glyph unicode="&#xea3e;" d="M682.667 746.667c0-94.257-76.41-170.667-170.667-170.667s-170.667 76.41-170.667 170.667c0 94.257 76.41 170.667 170.667 170.667s170.667-76.41 170.667-170.667z" />
<glyph unicode="&#xea3f;" d="M512 618.667c-46.933 0-85.333 38.4-85.333 85.333s38.4 85.333 85.333 85.333 85.333-38.4 85.333-85.333-38.4-85.333-85.333-85.333z" />
<glyph unicode="&#xea40;" d="M448 234.667h-298.667c-35.371 0-64 28.629-64 64s28.629 64 64 64h298.667c35.371 0 64-28.629 64-64s-28.629-64-64-64z" />
<glyph unicode="&#xea41;" d="M1019.605 138.539l-138.667 320c-8.448 19.499-27.691 32.128-48.939 32.128s-40.491-12.629-48.939-32.128l-138.667-320c-11.691-27.008 0.725-58.453 27.733-70.144 27.093-11.733 58.411 0.683 70.144 27.733l23.040 53.205h133.333l23.040-53.205c8.789-20.139 28.416-32.128 48.981-32.128 7.083 0 14.251 1.408 21.205 4.437 27.008 11.648 39.424 43.093 27.733 70.101zM802.304 234.667l29.696 68.523 29.696-68.523h-59.392z" />
<glyph unicode="&#xea42;" d="M333.013 406.272l-11.179 49.707h-114.944l-11.179-49.707c-5.717-25.472-28.373-43.605-54.485-43.605v0c-36.181 0-62.805 33.877-54.272 69.035l90.496 372.395c10.069 41.429 47.147 70.571 89.771 70.571v0c42.667 0 79.787-29.227 89.813-70.699l89.941-372.352c8.448-35.115-18.176-68.949-54.357-68.949h-5.12c-26.112 0-48.725 18.133-54.485 43.605zM266.112 763.307h-2.859l-43.392-217.643h87.509l-41.259 217.643z" />
</font>
</defs>
</svg>
